Verdi - Otello / Верди - Отелло (Aleksandrs Antonenko, Sonya Yoncheva, Yannick Nézet-Séguin, Zeljko Lucic, Dimitri Pittas ) [2015, Opera, HDTVRip] Metropolitan Opera


 

[Цитировать]

Отелло
Год выпуска: 2015
Лейбл: The Metropolitan Opera
Страна-производитель: US
Жанр: Opera
Продолжительность: 00:06:08+01:09:34+00:35:38+01:23:47
Субтитры: English, German, French, Spanish, Russian, Italian, Swedish, Portuguese
Исполнители:
Aleksandrs Antonenko (Otello)
Sonya Yoncheva (Desdemona)
Zeljko Lucic (Iago)
Dimitri Pittas (Cassio)
Дирижер: Yannick Nézet-Séguin
Треклист:
(список файлов)
Backstage - анонс будущих трансляций, за кулисами театра, интервью (на англ)
Part1 - 1 часть (перевод - субтитры, формат SUP)
Intermission - антракт, интервью (на англ.)
Part2 - 2 часть
Качество видео: HDTVRip
Формат/Контейнер: TS
Видео кодек: MPEG2
Аудио кодек: AC3
Видео поток: MPEG Video (Version 2) (Main@High), 18.4 Мбит/сек, 1920x1080 (16:9), 25 к/сек
Аудио поток: AC-3 Audio Coding 3, 448 Кбит/сек, 6 каналов, 48,0 КГц

Скриншоты




Mediainfo

Общее
Идентификатор : 1 (0x1)
Полное имя : E:\Feed\Otello\Otello.17.10.1.Backstage.ts
Формат : MPEG-TS
Размер файла : 870 Мбайт
Продолжительность : 6 м. 8 с.
Время начала : UTC 2015-10-17 17:03:55
Время окончания : UTC 2015-10-17 17:10:02
Режим общего битрейта : Постоянный
Общий поток : 19,8 Мбит/сек
Название сети : Opera Intl
Оригинальное название сети : Astra Satellite Network 19,2'E
Видео
Идентификатор : 308 (0x134)
Идентификатор меню : 1 (0x1)
Формат : MPEG Video
Версия формата : Version 2
Профиль формата : Main@High
Параметр BVOP формата : Да
Параметр матрицы формата : Выборочная
Параметр GOP формата : M=3, N=30
Идентификатор кодека : 2
Продолжительность : 6 м. 7 с.
Битрейт : 18,4 Мбит/сек
Максимальный битрейт : 16,0 Мбит/сек
Ширина : 1920 пикселей
Высота : 1080 пикселей
Соотношение сторон : 16:9
Частота кадров : 25,000 кадров/сек
Цветовое пространство : YUV
Субдискретизация насыщенности : 4:2:0
Битовая глубина : 8 бит
Тип развёртки : Чересстрочная
Порядок развёртки : Верхнее поле первое
Метод сжатия : С потерями
Бит/(Пиксели*Кадры) : 0.354
Временной код первого кадра : 00:58:00:00
Оригинал временного кода : Group of pictures header
Размер потока : 804 Мбайт (92%)
Аудио
Идентификатор : 256 (0x100)
Идентификатор меню : 1 (0x1)
Формат : AC-3
Формат/Информация : Audio Coding 3
Расширение режима : CM (complete main)
Параметр Endianness формата : Big
Идентификатор кодека : 6
Продолжительность : 6 м. 8 с.
Вид битрейта : Постоянный
Битрейт : 448 Кбит/сек
Каналы : 6 каналов
Расположение каналов : Front: L C R, Side: L R, LFE
Частота : 48,0 КГц
Битовая глубина : 16 бит
Метод сжатия : С потерями
Задержка видео : -1 с. 367 мс.
Размер потока : 19,7 Мбайт (2%)
Язык : English
Текст #1
Идентификатор : 1024 (0x400)
Идентификатор меню : 1 (0x1)
Формат : DVB Subtitle
Идентификатор кодека : 6
Задержка видео : 21 с.
Язык : English
Текст #2
Идентификатор : 1025 (0x401)
Идентификатор меню : 1 (0x1)
Формат : DVB Subtitle
Идентификатор кодека : 6
Задержка видео : 21 с.
Язык : German
Текст #3
Идентификатор : 1026 (0x402)
Идентификатор меню : 1 (0x1)
Формат : DVB Subtitle
Идентификатор кодека : 6
Задержка видео : 21 с.
Язык : French
Текст #4
Идентификатор : 1027 (0x403)
Идентификатор меню : 1 (0x1)
Формат : DVB Subtitle
Идентификатор кодека : 6
Задержка видео : 21 с.
Язык : Spanish
Текст #5
Идентификатор : 1028 (0x404)
Идентификатор меню : 1 (0x1)
Формат : DVB Subtitle
Идентификатор кодека : 6
Задержка видео : 21 с.
Язык : Russian
Текст #6
Идентификатор : 1029 (0x405)
Идентификатор меню : 1 (0x1)
Формат : DVB Subtitle
Идентификатор кодека : 6
Задержка видео : 21 с.
Язык : Italian
Текст #7
Идентификатор : 1030 (0x406)
Идентификатор меню : 1 (0x1)
Формат : DVB Subtitle
Идентификатор кодека : 6
Задержка видео : 21 с.
Язык : Swedish
Текст #8
Идентификатор : 1031 (0x407)
Идентификатор меню : 1 (0x1)
Формат : DVB Subtitle
Идентификатор кодека : 6
Задержка видео : 21 с.
Язык : Portuguese
Меню
Идентификатор : 32 (0x20)
Идентификатор меню : 1 (0x1)
Продолжительность : 6 м. 8 с.
Список : 308 (0x134) (MPEG Video) / 256 (0x100) (AC-3, English) / 256 (0x100) (AC-3, English) / 1024 (0x400) (DVB Subtitle, English) / 1025 (0x401) (DVB Subtitle, German) / 1026 (0x402) (DVB Subtitle, French) / 1027 (0x403) (DVB Subtitle, Spanish) / 1028 (0x404) (DVB Subtitle, Russian) / 1029 (0x405) (DVB Subtitle, Italian) / 1030 (0x406) (DVB Subtitle, Swedish) / 1031 (0x407) (DVB Subtitle, Portuguese)
Язык : / English / English / English / German / French / Spanish / Russian / Italian / Swedish / Portuguese
Название сервиса : MET 0PERA INTL 03/10/15
Поставщик сервиса : ALL M0BILE VIDE0
Тип сервиса : digital television
Максимальный битрейт : 17405200



Показать сообщения:    

Текущее время: 07-Дек 11:39

Часовой пояс: UTC + 3


Вы не можете начинать темы
Вы не можете отвечать на сообщения
Вы не можете редактировать свои сообщения
Вы не можете удалять свои сообщения
Вы не можете голосовать в опросах
Вы не можете прикреплять файлы к сообщениям
Вы не можете скачивать файлы