Шекспир - Гамлет / William Shakespeare - Hamlet (Линдси Тернер / Lyndsey Turner) Benedict Cumberbatch, Бенедикт Камбербэтч [2015, UK, classic, HDTVRip] National Theatre Live


 

[Цитировать]

Гамлет / Hamlet
Название театра: National Theatre Live
Страна: UK
Жанр: трагедия
Год выпуска: 2015
Продолжительность: 02:02:59 + 00:53:10 + 00:02:52
Перевод: Субтитры
Cубтитры: English, Swedish, Russian
Оригинальная аудиодорожка: английский
Режиссёр: Линдси Тернер / Lyndsey Turner
В ролях: Benedict Cumberbatch
Описание: Номинант Academy Award® Benedict Cumberbatch (Шерлок - т.с BBC, The Imitation Game, Франкенштейн в Национальном театре) исполняет главную роль в современной постановке трагедии Шекспира.
Семпл: https://cloud.mail.ru/public/DW7t/N8rDAvnkW
Качество видео: HDTVRip
Формат видео: AVC (контейнер TS)
Видео: AVC (Advanced Video Codec) High@L4.1, 1920x1080, 16:9, 25 кадров/сек
Аудио: AC-3 (Audio Coding 3), 640 Кбит/сек, 6 каналов, 48,0 КГц

MediaInfo

Общее
Идентификатор : 1 (0x1)
Полное имя : E:\Feed\Hamlet\Hamlet.dvbts\Hamlet.p1.ts
Формат : MPEG-TS
Размер файла : 25,5 Гбайт
Продолжительность : 2 ч. 2 м.
Режим общего битрейта : Постоянный
Общий поток : 29,7 Мбит/сек
Видео
Идентификатор : 308 (0x134)
Идентификатор меню : 1 (0x1)
Формат : AVC
Формат/Информация : Advanced Video Codec
Профиль формата : High@L4.1
Параметр CABAC формата : Да
Параметр ReFrames формата : 4 кадра
Идентификатор кодека : 27
Продолжительность : 2 ч. 2 м.
Битрейт : 27,6 Мбит/сек
Ширина : 1920 пикселей
Высота : 1080 пикселей
Соотношение сторон : 16:9
Частота кадров : 25,000 кадров/сек
Цветовое пространство : YUV
Субдискретизация насыщенности : 4:2:0
Битовая глубина : 8 бит
Тип развёртки : Чересстрочная
Порядок развёртки : Верхнее поле первое
Бит/(Пиксели*Кадры) : 0.532
Размер потока : 23,7 Гбайт (93%)
Основные цвета : BT.709
Характеристики трансфера : BT.709
Коэффициенты матрицы : BT.709
Аудио
Идентификатор : 256 (0x100)
Идентификатор меню : 1 (0x1)
Формат : AC-3
Формат/Информация : Audio Coding 3
Расширение режима : CM (complete main)
Параметр Endianness формата : Big
Идентификатор кодека : 6
Продолжительность : 2 ч. 2 м.
Вид битрейта : Постоянный
Битрейт : 640 Кбит/сек
Каналы : 6 каналов
Расположение каналов : Front: L C R, Side: L R, LFE
Частота : 48,0 КГц
Битовая глубина : 16 бит
Метод сжатия : С потерями
Задержка видео : -265 мс.
Размер потока : 563 Мбайт (2%)
Язык : English
Меню
Идентификатор : 32 (0x20)
Идентификатор меню : 1 (0x1)
Продолжительность : 2 ч. 2 м.
Список : 308 (0x134) (AVC) / 256 (0x100) (AC-3, English)
Язык : / English
Название сервиса : NT LIVE HAMLET
Поставщик сервиса : Links Broadcast
Тип сервиса : digital television
Максимальный битрейт : 200000000

Скриншот с названием постановки

Скриншоты






[Цитировать]

Нельзя ли выложить сжатую версию?! Это не "тянется" :(

[Цитировать]

imacintosh, к сожалению я не успел скачать. Подождите сида.


Показать сообщения:    

Текущее время: 07-Дек 17:27

Часовой пояс: UTC + 3


Вы не можете начинать темы
Вы не можете отвечать на сообщения
Вы не можете редактировать свои сообщения
Вы не можете удалять свои сообщения
Вы не можете голосовать в опросах
Вы не можете прикреплять файлы к сообщениям
Вы не можете скачивать файлы