(Opera, Vocal) Leopold Simoneau & Pierrette Alarie: Arias and Duets (Operatic Scenes by Mozart, Verdi, Gounod, Thomas, Bizet, Offenbach, Delibes), 1953-1955 - Studio recordings / 1994, FLAC (tracks+.cue), lossless


 

[Цитировать]

Léopold Simoneau & Pierrette Alarie: Arias and Duets
Жанр: Opera, Vocal
Страна-производитель диска: Германия
Год издания диска: 1994
Издатель (лейбл): Philips Classics
Дата записи: 1953-1955
Аудиокодек: FLAC
Тип рипа: tracks+.cue
Битрейт аудио: lossless
Продолжительность: 119:05
Источник: релизер (Guillermo)
Исполнители:
Léopold Simoneau, tenor,
Pierrette Alarie, soprano,
Maria Morales, soprano (CD 1: tracks 7-10),
Bernhard Paumgartner, conductor (CD 1: tracks 1-6),
Wiener Symphoniker,
Pierre Dervaux, conductor (CD 1: tracks 7-10; CD 2: tracks 1-8, 10, 13-14),
Orchestra of Concerts Lamoureux,
Andre Jouve, conductor (CD 2: tracks 9, 11-12).
Recording's dates:
February 1954 - Mozart's arias,
February 1953 - Verdi's La Traviata highlights, Thomas and Delibes arias,
April 1954 - rest French Opera recordings.

Лог создания рипаЛог создания рипа CD 1

Exact Audio Copy V1.0 beta 3 from 29. August 2011
EAC extraction logfile from 8. October 2015, 5:51
Artista desconocido / Título desconocido
Used drive : HL-DT-STDVDRAM GH24NSC0 Adapter: 3 ID: 0
Read mode : SecureUtilize accurate stream : YesDefeat audio cache : YesMake use of C2 pointers : No
Read offset correction : 6Overread into Lead-In and Lead-Out : NoFill up missing offset samples with silence : YesDelete leading and trailing silent blocks : NoNull samples used in CRC calculations : YesUsed interface : Native Win32 interface for Win NT & 2000Gap handling : Appended to previous track
Used output format : Internal WAV RoutinesSample format : 44.100 Hz; 16 Bit; Stereo
TOC of the extracted CD
Track | Start | Length | Start sector | End sector --------------------------------------------------------- 1 | 0:00.33 | 7:46.00 | 33 | 34982 2 | 7:46.33 | 9:27.00 | 34983 | 77507 3 | 17:13.33 | 4:35.65 | 77508 | 98197 4 | 21:49.23 | 4:32.10 | 98198 | 118607 5 | 26:21.33 | 4:51.00 | 118608 | 140432 6 | 31:12.33 | 2:26.00 | 140433 | 151382 7 | 33:38.33 | 3:39.00 | 151383 | 167807 8 | 37:17.33 | 3:44.17 | 167808 | 184624 9 | 41:01.50 | 3:14.58 | 184625 | 199232 10 | 44:16.33 | 3:56.00 | 199233 | 216932
Track 1
Filename f:\Users\Guillermo\Desktop\EAC convertidos\01 Pista01.wav
Pre-gap length 0:00:02.44
Peak level 66.9 % Extraction speed 1.7 X Track quality 100.0 % Test CRC 63C884FB Copy CRC 63C884FB Copy OK
Track 2
Filename f:\Users\Guillermo\Desktop\EAC convertidos\02 Pista02.wav
Pre-gap length 0:00:01.00
Peak level 75.9 % Extraction speed 2.1 X Track quality 100.0 % Test CRC 05AE8EC7 Copy CRC 05AE8EC7 Copy OK
Track 3
Filename f:\Users\Guillermo\Desktop\EAC convertidos\03 Pista03.wav
Pre-gap length 0:00:04.00
Peak level 64.9 % Extraction speed 2.1 X Track quality 100.0 % Test CRC 7DCB5064 Copy CRC 7DCB5064 Copy OK
Track 4
Filename f:\Users\Guillermo\Desktop\EAC convertidos\04 Pista04.wav
Pre-gap length 0:00:00.86
Peak level 67.2 % Extraction speed 1.9 X Track quality 99.9 % Test CRC 09D4BB76 Copy CRC 09D4BB76 Copy OK
Track 5
Filename f:\Users\Guillermo\Desktop\EAC convertidos\05 Pista05.wav
Pre-gap length 0:00:04.00
Peak level 57.7 % Extraction speed 2.4 X Track quality 100.0 % Test CRC 1778FD1D Copy CRC 1778FD1D Copy OK
Track 6
Filename f:\Users\Guillermo\Desktop\EAC convertidos\06 Pista06.wav
Pre-gap length 0:00:03.00
Peak level 62.7 % Extraction speed 2.2 X Track quality 100.0 % Test CRC 90A18E71 Copy CRC 90A18E71 Copy OK
Track 7
Filename f:\Users\Guillermo\Desktop\EAC convertidos\07 Pista07.wav
Pre-gap length 0:00:04.00
Peak level 96.4 % Extraction speed 2.4 X Track quality 100.0 % Test CRC 446278DE Copy CRC 446278DE Copy OK
Track 8
Filename f:\Users\Guillermo\Desktop\EAC convertidos\08 Pista08.wav
Pre-gap length 0:00:03.00
Peak level 73.4 % Extraction speed 2.5 X Track quality 100.0 % Test CRC 899E6948 Copy CRC 899E6948 Copy OK
Track 9
Filename f:\Users\Guillermo\Desktop\EAC convertidos\09 Pista09.wav
Pre-gap length 0:00:02.22
Peak level 92.3 % Extraction speed 2.6 X Track quality 100.0 % Test CRC 9CA123BD Copy CRC 9CA123BD Copy OK
Track 10
Filename f:\Users\Guillermo\Desktop\EAC convertidos\10 Pista10.wav
Pre-gap length 0:00:03.00
Peak level 83.1 % Extraction speed 2.7 X Track quality 100.0 % Test CRC 5E754CCC Copy CRC 5E754CCC Copy OK
No errors occurred
End of status report
==== Log checksum 1742DD10C5203E7257F5542ECA4F245D8CD8976AEBB322664A93C6B3EB0833F5 ====

Лог создания рипа CD 2

Exact Audio Copy V1.0 beta 3 from 29. August 2011
EAC extraction logfile from 8. October 2015, 9:05
Various / Simoneau Alarie 3of7
Used drive : HL-DT-STDVDRAM GH24NSC0 Adapter: 3 ID: 0
Read mode : SecureUtilize accurate stream : YesDefeat audio cache : YesMake use of C2 pointers : No
Read offset correction : 6Overread into Lead-In and Lead-Out : NoFill up missing offset samples with silence : YesDelete leading and trailing silent blocks : NoNull samples used in CRC calculations : YesUsed interface : Native Win32 interface for Win NT & 2000Gap handling : Appended to previous track
Used output format : User Defined EncoderSelected bitrate : 768 kBit/sQuality : HighAdd ID3 tag : NoCommand line compressor : C:\Program Files (x86)\Exact Audio Copy\FLAC\FLAC.EXEAdditional command line options : -8 -V -T "ARTIST=%artist%" -T "TITLE=%title%" -T "ALBUM=%albumtitle%" -T "DATE=%year%" -T "TRACKNUMBER=%tracknr%" -T "GENRE=%genre%" -T "PERFORMER=%albuminterpret%" -T "COMPOSER=%composer%" %haslyrics%--tag-from-file=LYRICS="%lyricsfile%"%haslyrics% -T "ALBUMARTIST=%albumartist%" -T "DISCNUMBER=%cdnumber%" -T "TOTALDISCS=%totalcds%" -T "TOTALTRACKS=%numtracks%" -T "COMMENT=%comment%" %source% -o %dest%
TOC of the extracted CD
Track | Start | Length | Start sector | End sector --------------------------------------------------------- 1 | 0:00.33 | 3:31.00 | 33 | 15857 2 | 3:31.33 | 2:33.00 | 15858 | 27332 3 | 6:04.33 | 2:23.00 | 27333 | 38057 4 | 8:27.33 | 4:48.00 | 38058 | 59657 5 | 13:15.33 | 7:50.00 | 59658 | 94907 6 | 21:05.33 | 4:56.00 | 94908 | 117107 7 | 26:01.33 | 6:10.00 | 117108 | 144857 8 | 32:11.33 | 5:18.00 | 144858 | 168707 9 | 37:29.33 | 4:23.00 | 168708 | 188432 10 | 41:52.33 | 7:05.00 | 188433 | 220307 11 | 48:57.33 | 7:25.00 | 220308 | 253682 12 | 56:22.33 | 3:55.00 | 253683 | 271307 13 | 60:17.33 | 2:11.00 | 271308 | 281132 14 | 62:28.33 | 8:36.00 | 281133 | 319832
Track 1
Filename f:\Users\Guillermo\Desktop\EAC convertidos\01 Gounod - Romeo et Juliette - ariette 'Ah, je veux vivre dans le reve', act I (Juliette).wav
Peak level 66.0 % Extraction speed 1.6 X Track quality 100.0 % Test CRC 5E41502C Copy CRC 5E41502C Copy OK
Track 2
Filename f:\Users\Guillermo\Desktop\EAC convertidos\02 Gounod - Mireille - cavatina 'Hereux petit berger', act IV (Mireille).wav
Peak level 66.5 % Extraction speed 1.6 X Track quality 100.0 % Test CRC 433BEBDD Copy CRC 433BEBDD Copy OK
Track 3
Filename f:\Users\Guillermo\Desktop\EAC convertidos\03 Gounod - Mireille - valse-ariette 'O legere hirondelle', act I (Mireille).wav
Peak level 78.1 % Extraction speed 1.6 X Track quality 100.0 % Test CRC 69AB2C39 Copy CRC 69AB2C39 Copy OK
Track 4
Filename f:\Users\Guillermo\Desktop\EAC convertidos\04 Thomas - Mignon - polonaise 'Je suis Titania', act II (Philine).wav
Peak level 78.2 % Extraction speed 2.0 X Track quality 100.0 % Test CRC 4407AEBE Copy CRC 4407AEBE Copy OK
Track 5
Filename f:\Users\Guillermo\Desktop\EAC convertidos\05 Bizet - Les Pecheurs de perles - recitative and cavatina 'Me voila seule dans la nuit', act II (Leila).wav
Peak level 88.5 % Extraction speed 2.4 X Track quality 100.0 % Test CRC 13C159D0 Copy CRC 13C159D0 Copy OK
Track 6
Filename f:\Users\Guillermo\Desktop\EAC convertidos\06 Offenbach - Les Contes d'Hoffmann - 'Les oiseaux dans la charmille', act II (Olympia).wav
Peak level 80.9 % Extraction speed 2.5 X Track quality 100.0 % Test CRC FD65E3AD Copy CRC FD65E3AD Copy OK
Track 7
Filename f:\Users\Guillermo\Desktop\EAC convertidos\07 Bizet - Carmen - aria 'Je dis que rien ne m'epouvante', act III (Micaela).wav
Peak level 85.3 % Extraction speed 2.4 X Track quality 99.9 % Test CRC 1E40F57F Copy CRC 1E40F57F Copy OK
Track 8
Filename f:\Users\Guillermo\Desktop\EAC convertidos\08 Delibes - Lakme - aria 'Prendre le dessin d'un bijou. Fantaisie aux divins mensonges', act I (Gerald).wav
Peak level 88.0 % Extraction speed 2.8 X Track quality 100.0 % Test CRC 38C5EC79 Copy CRC 38C5EC79 Copy OK
Track 9
Filename f:\Users\Guillermo\Desktop\EAC convertidos\09 Delibes - Lakme - aria 'Pourquoi dans les grands bois', act I (Lakme).wav
Peak level 79.1 % Extraction speed 2.8 X Track quality 100.0 % Test CRC E8DB7928 Copy CRC E8DB7928 Copy OK
Track 10
Filename f:\Users\Guillermo\Desktop\EAC convertidos\10 Delibes - Lakme - duet 'D'ou viens-tu C'est le dieu de la jeunesse', act I (Lakme, Gerald).wav
Peak level 63.5 % Extraction speed 3.2 X Track quality 100.0 % Test CRC FA036964 Copy CRC FA036964 Copy OK
Track 11
Filename f:\Users\Guillermo\Desktop\EAC convertidos\11 Delibes - Lakme - 'Ou va la jeune Indoue' (Bell Song from Act III) (Lakme).wav
Peak level 59.5 % Extraction speed 3.4 X Track quality 100.0 % Test CRC 7023A54A Copy CRC 7023A54A Copy OK
Track 12
Filename f:\Users\Guillermo\Desktop\EAC convertidos\12 Delibes - Lakme - berceuse 'Sous le ciel tout etoile', act III (Lakme).wav
Peak level 57.1 % Extraction speed 3.2 X Track quality 100.0 % Test CRC CB37B686 Copy CRC CB37B686 Copy OK
Track 13
Filename f:\Users\Guillermo\Desktop\EAC convertidos\13 Delibes - Lakme - duet 'Tu m'as donne le plus doux reve', act III (Lakme, Gerald).wav
Peak level 35.3 % Extraction speed 2.8 X Track quality 100.0 % Test CRC 872395AB Copy CRC 872395AB Copy OK
Track 14
Filename f:\Users\Guillermo\Desktop\EAC convertidos\14 Delibes - Lakme - duet 'Lakme! Lakme! C'est toi. Dans la foret pres de nous', act II (Lakme, Gerald).wav
Peak level 80.4 % Extraction speed 3.8 X Track quality 100.0 % Test CRC AF401372 Copy CRC AF401372 Copy OK
No errors occurred
End of status report
==== Log checksum 2839EB7C2C478853319E2A7624584D5FEFFD898C07B6026BAAD6D6D9E308BE8F ====

Содержание индексной карты (.CUE)Содержание индексной карты (.CUE) CD 1

REM DISCID 800B4C0AREM COMMENT "ExactAudioCopy v1.0b3"FILE "01 Pista01.wav" WAVE TRACK 01 AUDIO PREGAP 00:00:33 INDEX 01 00:00:00 TRACK 02 AUDIO INDEX 00 07:45:00FILE "02 Pista02.wav" WAVE INDEX 01 00:00:00 TRACK 03 AUDIO INDEX 00 09:23:00FILE "03 Pista03.wav" WAVE INDEX 01 00:00:00 TRACK 04 AUDIO INDEX 00 04:35:00FILE "04 Pista04.wav" WAVE INDEX 01 00:00:00 TRACK 05 AUDIO INDEX 00 04:28:10FILE "05 Pista05.wav" WAVE INDEX 01 00:00:00 TRACK 06 AUDIO INDEX 00 04:48:00FILE "06 Pista06.wav" WAVE INDEX 01 00:00:00 TRACK 07 AUDIO INDEX 00 02:22:00FILE "07 Pista07.wav" WAVE INDEX 01 00:00:00 TRACK 08 AUDIO INDEX 00 03:36:00FILE "08 Pista08.wav" WAVE INDEX 01 00:00:00 TRACK 09 AUDIO INDEX 00 03:42:00FILE "09 Pista09.wav" WAVE INDEX 01 00:00:00 TRACK 10 AUDIO INDEX 00 03:11:58FILE "10 Pista10.wav" WAVE INDEX 01 00:00:00

Содержание индексной карты (.CUE) CD 2

REM GENRE OperaREM DATE 2004REM DISCID CC10A80EREM COMMENT "ExactAudioCopy v1.0b3"FILE "01 Gounod - Romeo et Juliette - ariette 'Ah, je veux vivre dans le reve', act I (Juliette).wav" WAVE TRACK 01 AUDIO PREGAP 00:00:33 INDEX 01 00:00:00 TRACK 02 AUDIO INDEX 00 03:25:00FILE "02 Gounod - Mireille - cavatina 'Hereux petit berger', act IV (Mireille).wav" WAVE INDEX 01 00:00:00 TRACK 03 AUDIO INDEX 00 02:29:00FILE "03 Gounod - Mireille - valse-ariette 'O legere hirondelle', act I (Mireille).wav" WAVE INDEX 01 00:00:00 TRACK 04 AUDIO INDEX 00 02:20:00FILE "04 Thomas - Mignon - polonaise 'Je suis Titania', act II (Philine).wav" WAVE INDEX 01 00:00:00 TRACK 05 AUDIO INDEX 00 04:44:00FILE "05 Bizet - Les Pecheurs de perles - recitative and cavatina 'Me voila seule dans la nuit', act II (Leila).wav" WAVE INDEX 01 00:00:00 TRACK 06 AUDIO INDEX 00 07:47:00FILE "06 Offenbach - Les Contes d'Hoffmann - 'Les oiseaux dans la charmille', act II (Olympia).wav" WAVE INDEX 01 00:00:00 TRACK 07 AUDIO INDEX 00 04:50:00FILE "07 Bizet - Carmen - aria 'Je dis que rien ne m'epouvante', act III (Micaela).wav" WAVE INDEX 01 00:00:00 TRACK 08 AUDIO INDEX 00 06:03:00FILE "08 Delibes - Lakme - aria 'Prendre le dessin d'un bijou. Fantaisie aux divins mensonges', act I (Gerald).wav" WAVE INDEX 01 00:00:00 TRACK 09 AUDIO INDEX 00 05:13:00FILE "09 Delibes - Lakme - aria 'Pourquoi dans les grands bois', act I (Lakme).wav" WAVE INDEX 01 00:00:00 TRACK 10 AUDIO INDEX 00 04:18:00FILE "10 Delibes - Lakme - duet 'D'ou viens-tu C'est le dieu de la jeunesse', act I (Lakme, Gerald).wav" WAVE INDEX 01 00:00:00 TRACK 11 AUDIO INDEX 00 06:59:00FILE "11 Delibes - Lakme - 'Ou va la jeune Indoue' (Bell Song from Act III) (Lakme).wav" WAVE INDEX 01 00:00:00 TRACK 12 AUDIO INDEX 00 07:21:00FILE "12 Delibes - Lakme - berceuse 'Sous le ciel tout etoile', act III (Lakme).wav" WAVE INDEX 01 00:00:00 TRACK 13 AUDIO INDEX 00 03:52:00FILE "13 Delibes - Lakme - duet 'Tu m'as donne le plus doux reve', act III (Lakme, Gerald).wav" WAVE INDEX 01 00:00:00 TRACK 14 AUDIO INDEX 00 02:08:00FILE "14 Delibes - Lakme - duet 'Lakme! Lakme! C'est toi. Dans la foret pres de nous', act II (Lakme, Gerald).wav" WAVE INDEX 01 00:00:00

Треклист

Disc 1:
W. A. Mozart:
Idomeneo re di Creta:
1. Fuor del mar
2. Ah! non sarrebe
Don Giovanni:
3. Dalla sua pace
4. Il mio tesoro
3. Cosi fan tutte - Un'aura amorosa
4. La clemenza di Tito - ah, se fosse intorno al trono
Giuseppe Verdi - La traviata:
5. Un di felice eterea
6. Lunge da lei
7. Che fai?
8. Parigi, o cara
Disc 2:
Charles Gounod:
1. Romeo et Juliette - Ah, je veux vivre
Mireille:
2. Heureux petit berger
3. O legere hirondelle
4. Ambroise Thomas - Mignon: Je suis Titania
5. Georges Bizet - Les Pecheurs de perles: Me voila seule dans la nuit
6. Jacques Offenbach - Les Contes d'Hoffmann: Lles oiseaux dans la charmille
7. Georges Bizet - Carmen: Je dis que rien ne m'epouvante
Leo Delibes - Lakme:
8. Prendre le dessin d'un bijou - fantaisie aux divins mensonges
9. Pourquoi dans les grands bois
10. D'ou viens-tu? - c'est le dieu de la jeunesse
11. Ou va la jeune hindoue
12. Sous le ciel tout étoile
13. Tu m'as donne
14. Lakme! c'est toi! - dans la foret pres de nous



Показать сообщения:    

Текущее время: 07-Дек 19:26

Часовой пояс: UTC + 3


Вы не можете начинать темы
Вы не можете отвечать на сообщения
Вы не можете редактировать свои сообщения
Вы не можете удалять свои сообщения
Вы не можете голосовать в опросах
Вы не можете прикреплять файлы к сообщениям
Вы не можете скачивать файлы