(Opera) Rossini - Armida / Россини - Армида (Callas, Albanese, Filippeschi, Ziliani - Orchestra e Coro dell Maggio Musicale Fiorentino, Serafin) - 2008, APE (image+.cue) lossless


 

[Цитировать]

Gioacchino Rossini - Armida
Жанр: Opera
Страна-производитель диска: EU
Год издания диска: 2008
Издатель (лейбл): Myto
Номер по каталогу: 00156
Дата записи: 1952
Аудиокодек: APE
Тип рипа: image+.cue
Битрейт аудио: lossless
Продолжительность: 75'50+76'41
Источник: собственный рип
Наличие сканов в содержимом раздачи: да
Rossini - Armida / Россини - Армида ( Carlo Rizzi, Randall Billis, Antonino Siragusa, Carlo Lepore, Carmen Romeu, Dmitry Korchak / Дмитрий Корчак ) Pesero [Opera, SATRip]

CD1

1. Sinfonia
2. Act I: Lieto e ridente
3. Act I: Ah! no: sia questo di tregua il giorno
4. Act I: Arditi, all'ire farem ritorno
5. Act I: Si, guerrieri, fian sacre
6. Act I: Germano, a te richiede
7. Act I: Signor, tanto il tuo nome
8. Act I: Sventurata or che mi resta?
9. Act I: Or che faro? Ceder dovro?
10. Act I: German, se togli al campo
11. Act I: Per me propizio il fato
12. Act I: Cedei, guerrieri, e ver
13. Act I: Come! a Dudon costui
14. Act I: Non soffriro l'offesa
15. Act I: Grata quest'alma, costante la memoria
16. Act I: Amor! … Possente nome!
17. Act I: Vacilla a quegli accenti
18. Act I: Ah! non poss'io resistere
19. Act I: Cara, per te quest'anima
20. Act I: Ecco il guerrier, il duce
21. Act I: Se pari agli accenti
22. Act I: Che terribile momento!
23. Act I: Sappia il duce il caso orrendo
24. Act I: Deh! se cara a te io sono
25. Act I: Vieni, o duce, punisci l'errore
26. Act I: Un astro di sangue
27. Act II: Alla voce d'Armida possente
28. Act II: Sovrumano poter
29. Act II: Di fiamme e ferro cinti
30. Act II: Ebben, l'istante e giunto
31. Act II: Introduzione scena seconda
32. Act II: Dove son io?

CD2

1. Act II: Mio ben, questo che premi
2. Act II: No, d'Amor la reggia e questa
3. Act II: Canzoni amorose
4. Act II: D'amore al dolce impero
5. Act II: Ballo: Marziale
6. Act II: Ballo: Andante
7. Act II: Ballo: Allegro moderato
8. Act II: Ballo: Vivace
9. Act II: Ballo: Coda Orchestra
10. Act III: Come l'aurette placide
11. Act III: Oh, quanto, amico d'Ascalona al saggio
12. Act III: T'inganni. A noi sen viene
13. Act III: Fuggite, infernei mostri
14. Act III: Soavi catene
15. Act III: O mio Rinaldo, ammira
16. Act III: Lo splendor di que'rai
17. Act III: In quale aspetto imbelle
18. Act III: S'hai cor bastante in petto
19. Act III: Unitevi a gara virtude, valore
20. Act III: Musica di transformazione
21. Act III: Sia lode al ciel! da quelle inique mura
22. Act III: Ed e pur vero? …
23. Act III: Se al mio crudel
24. Act III: Dove son io?
25. Act III: Vendetta …
26. Armida, Act II: D'amore al dolce impero
Исполнители:
Gioacchino Rossini - Armida
Armida - Maria Callas (sopran)
Rinaldo - Francesco Albanese (Tenor)
Gernando - Mario Filippeschi (Tenor)
Goffredo - Alessandro Ziliani (Tenor)
Eustazio - Gianni Raimondi (Tenor)
Astarotte - Marco Stefanoni (Bas)
Orchestra e Coro dell Maggio Musicale Fiorentino
Tullio Serafin
Teatro Comunale, Firenze 26.4.1952

Лог создания рипа

CD1

Exact Audio Copy V1.0 beta 6 from 9. April 2015
EAC extraction logfile from 12. September 2015, 19:32
Callas, ALbanese, Filippeschi, Raimondi, Zillani - Orchestra e Coro Maggio Fiorentino / Rossini - Armida, Serafin CD1
Used drive : TSSTcorpCDDVDW SE-208AB Adapter: 1 ID: 2
Read mode : Secure
Utilize accurate stream : Yes
Defeat audio cache : Yes
Make use of C2 pointers : No
Read offset correction : 6
Overread into Lead-In and Lead-Out : No
Fill up missing offset samples with silence : Yes
Delete leading and trailing silent blocks : No
Null samples used in CRC calculations : Yes
Used interface : Native Win32 interface for Win NT & 2000
Used output format : Monkey's Audio Lossless Encoder
Selected bitrate : High Lossless Compression
Quality : High
Add ID3 tag : Yes
Command line compressor : C:\Program Files (x86)\Exact Audio Copy\MAC\MAC.exe
TOC of the extracted CD
Track | Start | Length | Start sector | End sector
---------------------------------------------------------
1 | 0:00.00 | 6:22.64 | 0 | 28713
2 | 6:22.64 | 2:06.71 | 28714 | 38234
3 | 8:29.60 | 1:46.58 | 38235 | 46242
4 | 10:16.43 | 1:56.35 | 46243 | 54977
5 | 12:13.03 | 0:56.44 | 54978 | 59221
6 | 13:09.47 | 1:58.08 | 59222 | 68079
7 | 15:07.55 | 3:28.42 | 68080 | 83721
8 | 18:36.22 | 3:46.59 | 83722 | 100730
9 | 22:23.06 | 2:30.21 | 100731 | 112001
10 | 24:53.27 | 1:17.74 | 112002 | 117850
11 | 26:11.26 | 1:34.22 | 117851 | 124922
12 | 27:45.48 | 1:53.41 | 124923 | 133438
13 | 29:39.14 | 1:59.32 | 133439 | 142395
14 | 31:38.46 | 2:32.41 | 142396 | 153836
15 | 34:11.12 | 1:50.19 | 153837 | 162105
16 | 36:01.31 | 4:08.00 | 162106 | 180705
17 | 40:09.31 | 3:46.70 | 180706 | 197725
18 | 43:56.26 | 0:41.02 | 197726 | 200802
19 | 44:37.28 | 1:56.50 | 200803 | 209552
20 | 46:34.03 | 3:25.19 | 209553 | 224946
21 | 49:59.22 | 3:09.09 | 224947 | 239130
22 | 53:08.31 | 2:03.02 | 239131 | 248357
23 | 55:11.33 | 0:25.42 | 248358 | 250274
24 | 55:37.00 | 2:39.65 | 250275 | 262264
25 | 58:16.65 | 1:47.62 | 262265 | 270351
26 | 60:04.52 | 2:32.09 | 270352 | 281760
27 | 62:36.61 | 3:37.61 | 281761 | 298096
28 | 66:14.47 | 1:50.28 | 298097 | 306374
29 | 68:05.00 | 1:50.23 | 306375 | 314647
30 | 69:55.23 | 0:52.63 | 314648 | 318610
31 | 70:48.11 | 1:49.29 | 318611 | 326814
32 | 72:37.40 | 3:12.45 | 326815 | 341259
Range status and errors
Selected range
Filename D:\EAC\Rossini - Armida, Serafin CD1.wav
Peak level 96.3 %
Extraction speed 5.1 X
Range quality 100.0 %
Test CRC 46749680
Copy CRC 46749680
Copy OK
No errors occurred
AccurateRip summary
Track 1 accurately ripped (confidence 2) [57F8BA25] (AR v1)
Track 2 accurately ripped (confidence 2) [C1222B3B] (AR v1)
Track 3 accurately ripped (confidence 2) [4FB75770] (AR v1)
Track 4 accurately ripped (confidence 2) [99AC64EF] (AR v1)
Track 5 accurately ripped (confidence 2) [C6BECE95] (AR v1)
Track 6 accurately ripped (confidence 2) [7484022C] (AR v1)
Track 7 accurately ripped (confidence 2) [CF4ECA80] (AR v1)
Track 8 accurately ripped (confidence 2) [868A0DE3] (AR v1)
Track 9 accurately ripped (confidence 2) [5EF8A9F5] (AR v1)
Track 10 accurately ripped (confidence 2) [D4766FD3] (AR v1)
Track 11 accurately ripped (confidence 2) [83DE3F9B] (AR v1)
Track 12 accurately ripped (confidence 2) [8C992F6F] (AR v1)
Track 13 accurately ripped (confidence 2) [23F080EA] (AR v1)
Track 14 accurately ripped (confidence 2) [16FB3790] (AR v1)
Track 15 accurately ripped (confidence 2) [87203808] (AR v1)
Track 16 accurately ripped (confidence 2) [E953E4B8] (AR v1)
Track 17 accurately ripped (confidence 2) [108C5427] (AR v1)
Track 18 accurately ripped (confidence 2) [FA0B99C3] (AR v1)
Track 19 accurately ripped (confidence 2) [9E16893B] (AR v1)
Track 20 accurately ripped (confidence 2) [EEA2F92D] (AR v1)
Track 21 accurately ripped (confidence 2) [4A490389] (AR v1)
Track 22 accurately ripped (confidence 2) [58453400] (AR v1)
Track 23 accurately ripped (confidence 2) [B0117E15] (AR v1)
Track 24 accurately ripped (confidence 2) [3453612D] (AR v1)
Track 25 accurately ripped (confidence 2) [54AE490A] (AR v1)
Track 26 accurately ripped (confidence 2) [933C5D28] (AR v1)
Track 27 accurately ripped (confidence 2) [C362AE7E] (AR v1)
Track 28 accurately ripped (confidence 2) [219AF95B] (AR v1)
Track 29 accurately ripped (confidence 2) [1CB8B68F] (AR v1)
Track 30 accurately ripped (confidence 2) [6F1505F8] (AR v1)
Track 31 accurately ripped (confidence 2) [A47CD357] (AR v1)
Track 32 accurately ripped (confidence 2) [8B9FC5FF] (AR v1)
All tracks accurately ripped
End of status report
---- CUETools DB Plugin V2.1.6
[CTDB TOCID: NmBmyRAfs4SkqBmtsp8BegBAmls-] found
Submit result: NmBmyRAfs4SkqBmtsp8BegBAmls- has been confirmed
Track | CTDB Status
1 | (2/2) Accurately ripped
2 | (2/2) Accurately ripped
3 | (2/2) Accurately ripped
4 | (2/2) Accurately ripped
5 | (2/2) Accurately ripped
6 | (2/2) Accurately ripped
7 | (2/2) Accurately ripped
8 | (2/2) Accurately ripped
9 | (2/2) Accurately ripped
10 | (2/2) Accurately ripped
11 | (2/2) Accurately ripped
12 | (2/2) Accurately ripped
13 | (2/2) Accurately ripped
14 | (2/2) Accurately ripped
15 | (2/2) Accurately ripped
16 | (2/2) Accurately ripped
17 | (2/2) Accurately ripped
18 | (2/2) Accurately ripped
19 | (2/2) Accurately ripped
20 | (2/2) Accurately ripped
21 | (2/2) Accurately ripped
22 | (2/2) Accurately ripped
23 | (2/2) Accurately ripped
24 | (2/2) Accurately ripped
25 | (2/2) Accurately ripped
26 | (2/2) Accurately ripped
27 | (2/2) Accurately ripped
28 | (2/2) Accurately ripped
29 | (2/2) Accurately ripped
30 | (2/2) Accurately ripped
31 | (2/2) Accurately ripped
32 | (2/2) Accurately ripped
==== Log checksum 09CB21A0123C6D2A046B2D433665B041B4A16A339CC415A409228BB4513AE5F9 ====

CD2

Exact Audio Copy V1.0 beta 6 from 9. April 2015
EAC extraction logfile from 12. September 2015, 20:24
Callas, ALbanese, Filippeschi, Raimondi, Zillani - Orchestra e Coro Maggio Fiorentino / Rossini - Armida, Serafin CD2
Used drive : TS8XDVDSTRANSCEND Adapter: 1 ID: 1
Read mode : Secure
Utilize accurate stream : Yes
Defeat audio cache : Yes
Make use of C2 pointers : No
Read offset correction : 6
Overread into Lead-In and Lead-Out : No
Fill up missing offset samples with silence : Yes
Delete leading and trailing silent blocks : No
Null samples used in CRC calculations : Yes
Used interface : Native Win32 interface for Win NT & 2000
Used output format : Monkey's Audio Lossless Encoder
Selected bitrate : High Lossless Compression
Quality : High
Add ID3 tag : Yes
Command line compressor : C:\Program Files (x86)\Exact Audio Copy\MAC\MAC.exe
TOC of the extracted CD
Track | Start | Length | Start sector | End sector
---------------------------------------------------------
1 | 0:00.00 | 1:53.57 | 0 | 8531
2 | 1:53.57 | 2:10.64 | 8532 | 18345
3 | 4:04.46 | 1:41.44 | 18346 | 25964
4 | 5:46.15 | 7:49.51 | 25965 | 61190
5 | 13:35.66 | 2:05.60 | 61191 | 70625
6 | 15:41.51 | 4:25.73 | 70626 | 90573
7 | 20:07.49 | 4:08.27 | 90574 | 109200
8 | 24:16.01 | 1:59.68 | 109201 | 118193
9 | 26:15.69 | 1:10.18 | 118194 | 123461
10 | 27:26.12 | 2:48.17 | 123462 | 136078
11 | 30:14.29 | 0:48.37 | 136079 | 139715
12 | 31:02.66 | 3:29.40 | 139716 | 155430
13 | 34:32.31 | 1:18.56 | 155431 | 161336
14 | 35:51.12 | 2:33.05 | 161337 | 172816
15 | 38:24.17 | 2:24.72 | 172817 | 183688
16 | 40:49.14 | 2:14.64 | 183689 | 193802
17 | 43:04.03 | 3:37.29 | 193803 | 210106
18 | 46:41.32 | 1:50.13 | 210107 | 218369
19 | 48:31.45 | 1:41.16 | 218370 | 225960
20 | 50:12.61 | 2:48.04 | 225961 | 238564
21 | 53:00.65 | 1:23.55 | 238565 | 244844
22 | 54:24.45 | 3:05.20 | 244845 | 258739
23 | 57:29.65 | 4:46.54 | 258740 | 280243
24 | 62:16.44 | 4:50.29 | 280244 | 302022
25 | 67:06.73 | 2:58.01 | 302023 | 315373
26 | 70:04.74 | 6:36.28 | 315374 | 345101
Range status and errors
Selected range
Filename D:\EAC\Rossini - Armida, Serafin CD2.wav
Peak level 97.5 %
Extraction speed 1.8 X
Range quality 100.0 %
Test CRC 5F227B5A
Copy CRC 5F227B5A
Copy OK
No errors occurred
AccurateRip summary
Track 1 accurately ripped (confidence 2) [77DC5BA2] (AR v1)
Track 2 accurately ripped (confidence 2) [C337AA34] (AR v1)
Track 3 accurately ripped (confidence 2) [DF23761B] (AR v1)
Track 4 accurately ripped (confidence 2) [E1AC2FE2] (AR v1)
Track 5 accurately ripped (confidence 2) [C877EC8E] (AR v1)
Track 6 accurately ripped (confidence 2) [D51110B7] (AR v1)
Track 7 accurately ripped (confidence 2) [16127FE9] (AR v1)
Track 8 accurately ripped (confidence 2) [3D257C46] (AR v1)
Track 9 accurately ripped (confidence 2) [B49E9A07] (AR v1)
Track 10 accurately ripped (confidence 2) [C191D1A6] (AR v1)
Track 11 accurately ripped (confidence 2) [57926FBC] (AR v1)
Track 12 accurately ripped (confidence 2) [071E3042] (AR v1)
Track 13 accurately ripped (confidence 2) [90782C7A] (AR v1)
Track 14 accurately ripped (confidence 2) [C263348F] (AR v1)
Track 15 accurately ripped (confidence 2) [610996AC] (AR v1)
Track 16 accurately ripped (confidence 2) [49ACA69A] (AR v1)
Track 17 accurately ripped (confidence 2) [102515F3] (AR v1)
Track 18 accurately ripped (confidence 2) [5D389615] (AR v1)
Track 19 accurately ripped (confidence 2) [5EF3DBE9] (AR v1)
Track 20 accurately ripped (confidence 2) [EB0E7516] (AR v1)
Track 21 accurately ripped (confidence 2) [3330896F] (AR v1)
Track 22 accurately ripped (confidence 2) [C60EA987] (AR v1)
Track 23 accurately ripped (confidence 2) [4EACA5C7] (AR v1)
Track 24 accurately ripped (confidence 2) [08B0597D] (AR v1)
Track 25 accurately ripped (confidence 2) [8CC443E0] (AR v1)
Track 26 accurately ripped (confidence 2) [29B49570] (AR v1)
All tracks accurately ripped
End of status report
---- CUETools DB Plugin V2.1.6
[CTDB TOCID: aacuBGygPIvI28q1QRk9XeTcni4-] found
Submit result: unrecognized or virtual drive
Track | CTDB Status
1 | (2/2) Accurately ripped
2 | (2/2) Accurately ripped
3 | (2/2) Accurately ripped
4 | (2/2) Accurately ripped
5 | (2/2) Accurately ripped
6 | (2/2) Accurately ripped
7 | (2/2) Accurately ripped
8 | (2/2) Accurately ripped
9 | (2/2) Accurately ripped
10 | (2/2) Accurately ripped
11 | (2/2) Accurately ripped
12 | (2/2) Accurately ripped
13 | (2/2) Accurately ripped
14 | (2/2) Accurately ripped
15 | (2/2) Accurately ripped
16 | (2/2) Accurately ripped
17 | (2/2) Accurately ripped
18 | (2/2) Accurately ripped
19 | (2/2) Accurately ripped
20 | (2/2) Accurately ripped
21 | (2/2) Accurately ripped
22 | (2/2) Accurately ripped
23 | (2/2) Accurately ripped
24 | (2/2) Accurately ripped
25 | (2/2) Accurately ripped
26 | (2/2) Accurately ripped
==== Log checksum 7FD1E53F060FB745FD4B4EA3E87E67A63F31347DAB9677DE0E38716A14832A7F ====

Содержание индексной карты (.CUE)

CD1

REM GENRE Opera
REM DATE 1952
REM DISCID F111C620
REM COMMENT "ExactAudioCopy v1.0b6"
PERFORMER "Callas, ALbanese, Filippeschi, Raimondi, Zillani - Orchestra e Coro Maggio Fi..."
TITLE "Rossini - Armida, Serafin CD1"
FILE "Rossini - Armida, Serafin CD1.ape" WAVE
TRACK 01 AUDIO
TITLE "Sinfonia"
PERFORMER "Callas, ALbanese, Filippeschi, Raimondi, Zillani - Orchestra e Coro Maggio Fi..."
INDEX 01 00:00:00
TRACK 02 AUDIO
TITLE "Atto I -Lieto, ridente oltre l'usato"
PERFORMER "Callas, ALbanese, Filippeschi, Raimondi, Zillani - Orchestra e Coro Maggio Fi..."
INDEX 01 06:22:64
TRACK 03 AUDIO
TITLE "Ah! no: sia questo di tregua il giorno"
PERFORMER "Callas, ALbanese, Filippeschi, Raimondi, Zillani - Orchestra e Coro Maggio Fi..."
INDEX 01 08:29:60
TRACK 04 AUDIO
TITLE "Arditi, all'ire farem ritorno."
PERFORMER "Callas, ALbanese, Filippeschi, Raimondi, Zillani - Orchestra e Coro Maggio Fi..."
INDEX 01 10:16:43
TRACK 05 AUDIO
TITLE "Si, guerrieri, fian sacre"
PERFORMER "Callas, ALbanese, Filippeschi, Raimondi, Zillani - Orchestra e Coro Maggio Fi..."
INDEX 01 12:13:03
TRACK 06 AUDIO
TITLE "Germano, a te richiede donna real,"
PERFORMER "Callas, ALbanese, Filippeschi, Raimondi, Zillani - Orchestra e Coro Maggio Fi..."
INDEX 01 13:09:47
TRACK 07 AUDIO
TITLE "Signor, tanto tuo nome"
PERFORMER "Callas, ALbanese, Filippeschi, Raimondi, Zillani - Orchestra e Coro Maggio Fi..."
INDEX 01 15:07:55
TRACK 08 AUDIO
TITLE "Sventurata! Or che mi resta"
PERFORMER "Callas, ALbanese, Filippeschi, Raimondi, Zillani - Orchestra e Coro Maggio Fi..."
INDEX 01 18:36:22
TRACK 09 AUDIO
TITLE "Or che farò? Ceder Dovrò?"
PERFORMER "Callas, ALbanese, Filippeschi, Raimondi, Zillani - Orchestra e Coro Maggio Fi..."
INDEX 01 22:23:06
TRACK 10 AUDIO
TITLE "German, se togli al campo"
PERFORMER "Callas, ALbanese, Filippeschi, Raimondi, Zillani - Orchestra e Coro Maggio Fi..."
INDEX 01 24:53:27
TRACK 11 AUDIO
TITLE "Per me proprizioil fato"
PERFORMER "Callas, ALbanese, Filippeschi, Raimondi, Zillani - Orchestra e Coro Maggio Fi..."
INDEX 01 26:11:26
TRACK 12 AUDIO
TITLE "Cedei guerrieri è ver"
PERFORMER "Callas, ALbanese, Filippeschi, Raimondi, Zillani - Orchestra e Coro Maggio Fi..."
INDEX 01 27:45:48
TRACK 13 AUDIO
TITLE "Com! a Dudon costui succede?"
PERFORMER "Callas, ALbanese, Filippeschi, Raimondi, Zillani - Orchestra e Coro Maggio Fi..."
INDEX 01 29:39:14
TRACK 14 AUDIO
TITLE "Non soffrirò l'offesa"
PERFORMER "Callas, ALbanese, Filippeschi, Raimondi, Zillani - Orchestra e Coro Maggio Fi..."
INDEX 01 31:38:46
TRACK 15 AUDIO
TITLE "Grata quest'alma, costante la memoria"
PERFORMER "Callas, ALbanese, Filippeschi, Raimondi, Zillani - Orchestra e Coro Maggio Fi..."
INDEX 01 34:11:12
TRACK 16 AUDIO
TITLE "Amor...Possente nome!"
PERFORMER "Callas, ALbanese, Filippeschi, Raimondi, Zillani - Orchestra e Coro Maggio Fi..."
INDEX 01 36:01:31
TRACK 17 AUDIO
TITLE "Vacillaa quegli accenti"
PERFORMER "Callas, ALbanese, Filippeschi, Raimondi, Zillani - Orchestra e Coro Maggio Fi..."
INDEX 01 40:09:31
TRACK 18 AUDIO
TITLE "Ah! non poss'io resistere"
PERFORMER "Callas, ALbanese, Filippeschi, Raimondi, Zillani - Orchestra e Coro Maggio Fi..."
INDEX 01 43:56:26
TRACK 19 AUDIO
TITLE "Cara, per te quest'anima"
PERFORMER "Callas, ALbanese, Filippeschi, Raimondi, Zillani - Orchestra e Coro Maggio Fi..."
INDEX 01 44:37:28
TRACK 20 AUDIO
TITLE "Ecco il guerriero il duce"
PERFORMER "Callas, ALbanese, Filippeschi, Raimondi, Zillani - Orchestra e Coro Maggio Fi..."
INDEX 01 46:34:03
TRACK 21 AUDIO
TITLE "Se pari accenti"
PERFORMER "Callas, ALbanese, Filippeschi, Raimondi, Zillani - Orchestra e Coro Maggio Fi..."
INDEX 01 49:59:22
TRACK 22 AUDIO
TITLE "Che terribile momento!"
PERFORMER "Callas, ALbanese, Filippeschi, Raimondi, Zillani - Orchestra e Coro Maggio Fi..."
INDEX 01 53:08:31
TRACK 23 AUDIO
TITLE "Sappia il duce il caso orrendo"
PERFORMER "Callas, ALbanese, Filippeschi, Raimondi, Zillani - Orchestra e Coro Maggio Fi..."
INDEX 01 55:11:33
TRACK 24 AUDIO
TITLE "Deh! se cara a te son io"
PERFORMER "Callas, ALbanese, Filippeschi, Raimondi, Zillani - Orchestra e Coro Maggio Fi..."
INDEX 01 55:37:00
TRACK 25 AUDIO
TITLE "Vieni, o duce, punisci l'errore"
PERFORMER "Callas, ALbanese, Filippeschi, Raimondi, Zillani - Orchestra e Coro Maggio Fi..."
INDEX 01 58:16:65
TRACK 26 AUDIO
TITLE "Un astro langue"
PERFORMER "Callas, ALbanese, Filippeschi, Raimondi, Zillani - Orchestra e Coro Maggio Fi..."
INDEX 01 60:04:52
TRACK 27 AUDIO
TITLE "Atto II - Alla voce d' Armida possente"
PERFORMER "Callas, ALbanese, Filippeschi, Raimondi, Zillani - Orchestra e Coro Maggio Fi..."
INDEX 01 62:36:61
TRACK 28 AUDIO
TITLE "Sovr'umano potere"
PERFORMER "Callas, ALbanese, Filippeschi, Raimondi, Zillani - Orchestra e Coro Maggio Fi..."
INDEX 01 66:14:47
TRACK 29 AUDIO
TITLE "Di ferro e fiamme cinti"
PERFORMER "Callas, ALbanese, Filippeschi, Raimondi, Zillani - Orchestra e Coro Maggio Fi..."
INDEX 01 68:05:00
TRACK 30 AUDIO
TITLE "Ebben, l'istante è giunto"
PERFORMER "Callas, ALbanese, Filippeschi, Raimondi, Zillani - Orchestra e Coro Maggio Fi..."
INDEX 01 69:55:23
TRACK 31 AUDIO
TITLE "Introduzione seconda scena"
PERFORMER "Callas, ALbanese, Filippeschi, Raimondi, Zillani - Orchestra e Coro Maggio Fi..."
INDEX 01 70:48:11
TRACK 32 AUDIO
TITLE "Dove son io!..."
PERFORMER "Callas, ALbanese, Filippeschi, Raimondi, Zillani - Orchestra e Coro Maggio Fi..."
INDEX 01 72:37:40

CD2

REM GENRE Opera
REM DATE 1952
REM DISCID 7011F91A
REM COMMENT "ExactAudioCopy v1.0b6"
PERFORMER "Callas, ALbanese, Filippeschi, Raimondi, Zillani - Orchestra e Coro Maggio Fi..."
TITLE "Rossini - Armida, Serafin CD2"
FILE "Rossini - Armida, Serafin CD2.ape" WAVE
TRACK 01 AUDIO
TITLE "Mio ben, questa che premi"
PERFORMER "Callas, ALbanese, Filippeschi, Raimondi, Zillani - Orchestra e Coro Maggio Fi..."
INDEX 01 00:00:00
TRACK 02 AUDIO
TITLE "No; d'Amor la reggia è questa"
PERFORMER "Callas, ALbanese, Filippeschi, Raimondi, Zillani - Orchestra e Coro Maggio Fi..."
INDEX 01 01:53:57
TRACK 03 AUDIO
TITLE "Canzoni AMorose"
PERFORMER "Callas, ALbanese, Filippeschi, Raimondi, Zillani - Orchestra e Coro Maggio Fi..."
INDEX 01 04:04:46
TRACK 04 AUDIO
TITLE "D'amor al dolce impero"
PERFORMER "Callas, ALbanese, Filippeschi, Raimondi, Zillani - Orchestra e Coro Maggio Fi..."
INDEX 01 05:46:15
TRACK 05 AUDIO
TITLE "Ballo: Marziale"
PERFORMER "Callas, ALbanese, Filippeschi, Raimondi, Zillani - Orchestra e Coro Maggio Fi..."
INDEX 01 13:35:66
TRACK 06 AUDIO
TITLE "Ballo:Andante"
PERFORMER "Callas, ALbanese, Filippeschi, Raimondi, Zillani - Orchestra e Coro Maggio Fi..."
INDEX 01 15:41:51
TRACK 07 AUDIO
TITLE "Ballo: Allegro Moderato"
PERFORMER "Callas, ALbanese, Filippeschi, Raimondi, Zillani - Orchestra e Coro Maggio Fi..."
INDEX 01 20:07:49
TRACK 08 AUDIO
TITLE "Ballo: Vivace"
PERFORMER "Callas, ALbanese, Filippeschi, Raimondi, Zillani - Orchestra e Coro Maggio Fi..."
INDEX 01 24:16:01
TRACK 09 AUDIO
TITLE "Ballo: Coda Orchestra"
PERFORMER "Callas, ALbanese, Filippeschi, Raimondi, Zillani - Orchestra e Coro Maggio Fi..."
INDEX 01 26:15:69
TRACK 10 AUDIO
TITLE "Atto III - Come l'Aurette placide"
PERFORMER "Callas, ALbanese, Filippeschi, Raimondi, Zillani - Orchestra e Coro Maggio Fi..."
INDEX 01 27:26:12
TRACK 11 AUDIO
TITLE "Oh quanto, amico, d'Ascalogna al Saggio"
PERFORMER "Callas, ALbanese, Filippeschi, Raimondi, Zillani - Orchestra e Coro Maggio Fi..."
INDEX 01 30:14:29
TRACK 12 AUDIO
TITLE "T'inganni. A noi sen viene"
PERFORMER "Callas, ALbanese, Filippeschi, Raimondi, Zillani - Orchestra e Coro Maggio Fi..."
INDEX 01 31:02:66
TRACK 13 AUDIO
TITLE "Fuggite infernei mostri"
PERFORMER "Callas, ALbanese, Filippeschi, Raimondi, Zillani - Orchestra e Coro Maggio Fi..."
INDEX 01 34:32:31
TRACK 14 AUDIO
TITLE "Soavi Catene"
PERFORMER "Callas, ALbanese, Filippeschi, Raimondi, Zillani - Orchestra e Coro Maggio Fi..."
INDEX 01 35:51:12
TRACK 15 AUDIO
TITLE "O mio rinaldo, ammira"
PERFORMER "Callas, ALbanese, Filippeschi, Raimondi, Zillani - Orchestra e Coro Maggio Fi..."
INDEX 01 38:24:17
TRACK 16 AUDIO
TITLE "Lo splendor di que'rai"
PERFORMER "Callas, ALbanese, Filippeschi, Raimondi, Zillani - Orchestra e Coro Maggio Fi..."
INDEX 01 40:49:14
TRACK 17 AUDIO
TITLE "In quale aspetto imbelle"
PERFORMER "Callas, ALbanese, Filippeschi, Raimondi, Zillani - Orchestra e Coro Maggio Fi..."
INDEX 01 43:04:03
TRACK 18 AUDIO
TITLE "S'hai cor bastantein petto"
PERFORMER "Callas, ALbanese, Filippeschi, Raimondi, Zillani - Orchestra e Coro Maggio Fi..."
INDEX 01 46:41:32
TRACK 19 AUDIO
TITLE "Unitevi a gara virtude, valore"
PERFORMER "Callas, ALbanese, Filippeschi, Raimondi, Zillani - Orchestra e Coro Maggio Fi..."
INDEX 01 48:31:45
TRACK 20 AUDIO
TITLE "Musica di trasformazione"
PERFORMER "Callas, ALbanese, Filippeschi, Raimondi, Zillani - Orchestra e Coro Maggio Fi..."
INDEX 01 50:12:61
TRACK 21 AUDIO
TITLE "Sia lode al Cielo, da quelle inique mura"
PERFORMER "Callas, ALbanese, Filippeschi, Raimondi, Zillani - Orchestra e Coro Maggio Fi..."
INDEX 01 53:00:65
TRACK 22 AUDIO
TITLE "Ed è più vero?..."
PERFORMER "Callas, ALbanese, Filippeschi, Raimondi, Zillani - Orchestra e Coro Maggio Fi..."
INDEX 01 54:24:45
TRACK 23 AUDIO
TITLE "Se al mio crudel tormento"
PERFORMER "Callas, ALbanese, Filippeschi, Raimondi, Zillani - Orchestra e Coro Maggio Fi..."
INDEX 01 57:29:65
TRACK 24 AUDIO
TITLE "Dove son io!...Fuggi!"
PERFORMER "Callas, ALbanese, Filippeschi, Raimondi, Zillani - Orchestra e Coro Maggio Fi..."
INDEX 01 62:16:44
TRACK 25 AUDIO
TITLE "Vendetta..."
PERFORMER "Callas, ALbanese, Filippeschi, Raimondi, Zillani - Orchestra e Coro Maggio Fi..."
INDEX 01 67:06:73
TRACK 26 AUDIO
TITLE "D'amor al dolce impero(1954-Teatro Casinò Municipale,Sanremo)"
PERFORMER "Maria Callas - Orchestra Sinfonica di Milano della RAI, Alfredo Simonetto"
INDEX 01 70:04:74



Показать сообщения:    

Текущее время: 18-Янв 00:21

Часовой пояс: UTC + 3


Вы не можете начинать темы
Вы не можете отвечать на сообщения
Вы не можете редактировать свои сообщения
Вы не можете удалять свои сообщения
Вы не можете голосовать в опросах
Вы не можете прикреплять файлы к сообщениям
Вы не можете скачивать файлы