Ludwig van Beethoven (Людвиг Бетховен) - Violin Concert in D major Op. 61 (Gewandhausorchester Leipzig, Riccardo Chailly, Nikolaj Znaider) [2014, Classical / Orchestral, HDTV 720p] Arte HD


 

[Цитировать]

Ludwig van Beethoven
Konzert für Violine und Orchester D-Dur op. 61

Nikolaj Znaider • Gewandhausorchester Leipzig • Riccardo Chailly

-
Год выпуска: 2014
Лейбл: MDR / Accentus Music
Жанр: Classical / Orchestral
Продолжительность: 00:45:00
Режиссер: Michael Beyer
Исполнители:
Nikolaj Znaider - violine
Gewandhausorchester Leipzig
Riccardo Chailly - leitung
Треклист:
Ludwig van Beethoven
- Konzert für Violine und Orchester D-Dur op. 61
Доп. информация:
Gewandhaus zu Leipzig, 10 October 2014
Nikolaj Znaider spielt Beethovens Klavierkonzert arte.tv
Ludwig van Beethoven: Violin Concerto - Nikolaj Znaider, Riccardo Chailly accentus.com
Gewandhausorchester Leipzig Official Site
Riccardo Chailly from Wikipedia, the free encyclopedia
Nikolaj Znaider from Wikipedia, the free encyclopedia
Качество видео: HDTV 720p
Контейнер: TS
Видео кодек: H.264
Аудио кодек: AC3
Видео поток: Overall bit rate: 8 920 Kbps, 1280*720 (16:9), at 50.000 fps, AVC (High@L4.0) (CABAC / 4 Ref Frames)
Аудио поток: German, 192 Kbps, 48.0 KHz, 2 channels, MPEG Audio (Version 1) (Layer 2)
Аудио 2: French, 192 Kbps, 48.0 KHz, 2 channels, MPEG Audio (Version 1) (Layer 2)
Аудио 3: Multiple languages, 448 Kbps, 48.0 KHz, 16 bits, 6 channels, AC-3
Аудио 4: 192 Kbps, 48.0 KHz, 2 channels, MPEG Audio (Version 1) (Layer 2)
Источник: Digital Satellite > SkyStar HD2 (TechniSat) > raw data to HDD > Cypheros TS-Doctor > Smart Cutter (cut) > ts

MediaInfo

GeneralID : 8900 (0x22C4)Complete name : C:\rutracker.org_HD\arte HD_Beethoven, Violinkonzert (Riccardo Chailly, Nikolaj Znaider) 2014.tsFormat : MPEG-TSFile size : 2.80 GiBDuration : 45mn 0sOverall bit rate mode : VariableOverall bit rate : 8 920 Kbps
VideoID : 5111 (0x13F7)Menu ID : 10302 (0x283E)Format : AVCFormat/Info : Advanced Video CodecFormat profile : High@L4.0Format settings, CABAC : YesFormat settings, ReFrames : 4 framesCodec ID : 27Duration : 45mn 0sBit rate : 7 445 KbpsWidth : 1 280 pixelsHeight : 720 pixelsDisplay aspect ratio : 16:9Frame rate : 50.000 fpsColor space : YUVChroma subsampling : 4:2:0Bit depth : 8 bitsScan type : ProgressiveBits/(Pixel*Frame) : 0.162Stream size : 2.34 GiB (83%)
Audio #1ID : 5112 (0x13F8)Menu ID : 10302 (0x283E)Format : MPEG AudioFormat version : Version 1Format profile : Layer 2Codec ID : 3Duration : 45mn 0sBit rate mode : ConstantBit rate : 192 KbpsChannel(s) : 2 channelsSampling rate : 48.0 KHzCompression mode : LossyDelay relative to video : -12msStream size : 61.8 MiB (2%)Language : German
Audio #2ID : 5113 (0x13F9)Menu ID : 10302 (0x283E)Format : MPEG AudioFormat version : Version 1Format profile : Layer 2Codec ID : 3Duration : 45mn 0sBit rate mode : ConstantBit rate : 192 KbpsChannel(s) : 2 channelsSampling rate : 48.0 KHzCompression mode : LossyDelay relative to video : -12msStream size : 61.8 MiB (2%)Language : French
Audio #3ID : 5116 (0x13FC)Menu ID : 10302 (0x283E)Format : AC-3Format/Info : Audio Coding 3Mode extension : CM (complete main)Format settings, Endianness : BigCodec ID : 6Duration : 45mn 0sBit rate mode : ConstantBit rate : 448 KbpsChannel(s) : 6 channelsChannel positions : Front: L C R, Side: L R, LFESampling rate : 48.0 KHzBit depth : 16 bitsCompression mode : LossyDelay relative to video : -27msStream size : 144 MiB (5%)Language : Multiple languages
Audio #4ID : 5117 (0x13FD)Menu ID : 10302 (0x283E)Format : MPEG AudioFormat version : Version 1Format profile : Layer 2Codec ID : 3Duration : 45mn 0sBit rate mode : ConstantBit rate : 192 KbpsChannel(s) : 2 channelsSampling rate : 48.0 KHzCompression mode : LossyDelay relative to video : -3msStream size : 61.8 MiB (2%)
... info ...">

Скриншоты ... info ...


Nikolaj Znaider, als Sohn polnisch-israelischer Eltern 1975 in Dänemark geboren, gilt als einer der größten Geigenvirtuosen unserer Zeit. Für ARTE spielt er unter der musikalischen Leitung von Riccardo Chailly das Violinkonzert D-Dur op. 61 von Beethoven. Begleitet wird er von dem renommierten Gewandhausorchester Leipzig. Das Konzert wurde am 12. Oktober 2014 aufgezeichnet.
Der 1975 als Sohn polnisch-israelischer Eltern in Dänemark geborene Nikolaj Znaider gehört nicht nur zu den führenden Violinisten im modernen Konzertbetrieb, er macht auch als Dirigent von sich reden, sei es in Sankt Petersburg oder in Berlin. 1997 gewann er den ersten Preis beim renommierten Königin-Elisabeth-Wettbewerb in Brüssel. Seitdem hat Znaider sein leidenschaftliches Spiel in vielen Konzertsälen mit fast allen großen Orchestern unter Beweis gestellt.
Über Beethovens Violinkonzert sagte er einmal, es sei die Bibel der Violinliteratur. Das Werk entstand innerhalb kürzester Zeit im Herbst 1806 und wurde offenbar so knapp vor der Uraufführung im Theater an der Wien fertig, dass der Solist und Widmungsträger Franz Clement seinen Part im Konzert vom Blatt spielen musste. Clement, der auch schon Beethovens „Eroica“ zur Uraufführung gebracht hatte, später jedoch durch allerlei „Sonderbarkeiten“ wie das Spiel auf umgekehrter Violine Beethovens Missfallen erregte und bei der Uraufführung der 9. Symphonie sogar aus dem Orchester verbannt wurde, dürfte durch seine Beliebtheit maßgeblich zum Achtungserfolg des Werkes beigetragen haben.
Obwohl sich die großen Geiger des 19. Jahrhunderts damit hören ließen, verbreitete sich das mäßig virtuose, jedoch künstlerisch-interpretatorisch höchst anspruchsvolle Werk nur schleppend. Zum Durchbruch verhalfen ihm schließlich die sensationellen Interpretationen des jungen Joseph Joachim. Er führte Beethovens Konzert 1844 unter dem Dirigat von Felix Mendelssohn in London auf und 1853 in Düsseldorf mit Robert Schumann am Pult. Von ihm stammt auch eine vielgespielte Solokadenz.
~ arte.tv/guide



Показать сообщения:    

Текущее время: 09-Дек 18:33

Часовой пояс: UTC + 3


Вы не можете начинать темы
Вы не можете отвечать на сообщения
Вы не можете редактировать свои сообщения
Вы не можете удалять свои сообщения
Вы не можете голосовать в опросах
Вы не можете прикреплять файлы к сообщениям
Вы не можете скачивать файлы