Царь Максимилиан (Александр Галибин) [2002 г., скоморошины, SATRip] Новосибирский академический молодежный театр "Глобус"


 

[Цитировать]

Царь Максимилиан (2 действия) Название театра: Новосибирский академический молодежный театр "Глобус".
Год выпуска: 2002.
Жанр: скоморошины.
Продолжительность: 00:52:57 + 00:42:16 (01:35:12).
Режиссеры: Александр Галибин, Галина Любимова.
В ролях:
Евгений Важенин, Николай Александров, Александр Польков, Сергей Мурашкин, Роман Якушкин, Сергей Кисса, Владимир Алексейцев, Артур Симонян, Илья Паньков, Евгений Миллер, Денис Малютин, Ольга Стебунова, Ирина Нахаева, Елена Ивакина, Ирина Камынина, Юрий Буслаев, Евгения Краснова, Светлана Потемкина, Светлана Прутис, Ирина Савицкова, Тамара Седельникова, Ольга Цинк.
О спектакле:
Современная версия народной русской драмы "Царь Максимилиан".
Первоначально народный политический памфлет возник как реакция, как сатира в старообрядческой среде, настроенной против западничества, реформ Петра Первого и его самого. Царя и его окружение - бояр, армию, чиновников играли простые люди, солдаты в избах, амбарах в традициях скоморошьего театра. Играли тайно - исполнение всегда преследовалось властями. С конца XVII века по 50-е годы нашего столетия сюжет пьесы оставался неизменным, время корректировало прототипы. Эта история всегда была современной. Ее играли, зная, кто такой царь Максимилиан. Власть и народ, Россия и Запад - эти проблемы и сегодня стоят остро. Спектакль - коллажная композиция на народной основе, скоморошество. Драма на основе современного памфлета, с использованием всех законов народного театра - скоморошество, лицедейство, паясничание, балаган. Отражение через театральное представление дня сегодняшнего, некое зеркало, способное явить век нынешний, дать возможность прозвучать современному фольклору, как и всегда, было с этой драмой, переписываемой на свой лад в острые моменты политической истории.

Дополнительная информация:
Страна: Россия .
Выпущено: © Продюсерский центр "Человек" по заказу ГТРК "Культура".
Автор пьесы: Елена Гремина.
Режиссер спектакля: Александр Галибин, Галина Любимова.
Сценография и костюмы: Эдуарда Кочергина.
Хореография: Гали Абайдулова.
Музыкальный руководитель: Иван Благодер.
Художник по свету: Глеб Фильштинский.
Режиссер телеверсии: Галина Любимова.
Операторы: Владимир Соколов, Валерий Миронов, Сергей Циханович.

Релиз

Качество видео:...SATRip
Формат:.................AVI

Видео

1-е действие - 720x544 (1.32:1), 25 fps, XviD MPEG-4 ~2048 kbps avg, 0.21 bit/pixel
2-е действие - 720x544 (1.32:1), 25 fps, XviD MPEG-4 ~2043 kbps avg, 0.21 bit/pixel
Аудио:..44.100 kHz, MPEG Layer 3, 2 ch, ~128.00 kbps avg

Отчет Media Info

1-е действие:
General
Complete name : Car'.Maksimilian_Novosibirskij.AMT.Globus.(2.dejstviya.iz.2).2002.XviD.SATRip.fenixclub\Car'.Maksimilian_Novosibirskij.AMT.Globus.2002.1-e.dejstvie.avi
Format : AVI
Format/Info : Audio Video Interleave
File size : 828 MiB
Duration : 52mn 56s
Overall bit rate : 2 187 Kbps
Writing application : VirtualDubModRus 1.5.10.2 (build 2542/release)
Writing library : VirtualDubMod build 2542/release
Video
ID : 0
Format : MPEG-4 Visual
Format profile : Advanced Simple@L5
Format settings, BVOP : 2
Format settings, QPel : No
Format settings, GMC : No warppoints
Format settings, Matrix : Default (MPEG)
Codec ID : XVID
Codec ID/Hint : XviD
Duration : 52mn 56s
Bit rate : 2 049 Kbps
Width : 720 pixels
Height : 544 pixels
Display aspect ratio : 4:3
Frame rate : 25.000 fps
Color space : YUV
Chroma subsampling : 4:2:0
Bit depth : 8 bits
Scan type : Progressive
Compression mode : Lossy
Bits/(Pixel*Frame) : 0.209
Stream size : 776 MiB (94%)
Writing library : XviD 73
Audio
ID : 1
Format : MPEG Audio
Format version : Version 1
Format profile : Layer 3
Codec ID : 55
Codec ID/Hint : MP3
Duration : 52mn 56s
Bit rate mode : Constant
Bit rate : 128 Kbps
Channel(s) : 2 channels
Sampling rate : 44.1 KHz
Compression mode : Lossy
Delay relative to video : 24ms
Stream size : 48.5 MiB (6%)
Alignment : Split accross interleaves
Interleave, duration : 40 ms (1.00 video frame)
Interleave, preload duratio : 500 ms.
2-е действие:
General
Complete name : Car'.Maksimilian_Novosibirskij.AMT.Globus.(2.dejstviya.iz.2).2002.XviD.SATRip.fenixclub\Car'.Maksimilian_Novosibirskij.AMT.Globus.2002.2-e.dejstvie.avi
Format : AVI
Format/Info : Audio Video Interleave
File size : 659 MiB
Duration : 42mn 15s
Overall bit rate : 2 182 Kbps
Writing application : VirtualDubModRus 1.5.10.2 (build 2542/release)
Writing library : VirtualDubMod build 2542/release
Video
ID : 0
Format : MPEG-4 Visual
Format profile : Advanced Simple@L5
Format settings, BVOP : 2
Format settings, QPel : No
Format settings, GMC : No warppoints
Format settings, Matrix : Default (MPEG)
Codec ID : XVID
Codec ID/Hint : XviD
Duration : 42mn 15s
Bit rate : 2 044 Kbps
Width : 720 pixels
Height : 544 pixels
Display aspect ratio : 4:3
Frame rate : 25.000 fps
Color space : YUV
Chroma subsampling : 4:2:0
Bit depth : 8 bits
Scan type : Progressive
Compression mode : Lossy
Bits/(Pixel*Frame) : 0.209
Stream size : 618 MiB (94%)
Writing library : XviD 73
Audio
ID : 1
Format : MPEG Audio
Format version : Version 1
Format profile : Layer 3
Codec ID : 55
Codec ID/Hint : MP3
Duration : 42mn 15s
Bit rate mode : Constant
Bit rate : 128 Kbps
Channel(s) : 2 channels
Sampling rate : 44.1 KHz
Compression mode : Lossy
Stream size : 38.7 MiB (6%)
Alignment : Split accross interleaves
Interleave, duration : 40 ms (1.00 video frame)
Interleave, preload duratio : 500 ms
Writing library : LAME3.99r
Encoding settings : -m s -V 4 -q 2 -lowpass 17 -b 128

Скриншоты

Альтернативный хост




Показать сообщения:    

Текущее время: 18-Янв 00:25

Часовой пояс: UTC + 3


Вы не можете начинать темы
Вы не можете отвечать на сообщения
Вы не можете редактировать свои сообщения
Вы не можете удалять свои сообщения
Вы не можете голосовать в опросах
Вы не можете прикреплять файлы к сообщениям
Вы не можете скачивать файлы