(Classical) Иоганнес Брамс / Johannes Brahms - Symphony No.4 & Пётр Ильич Чайковский - Симфония №5 (Евгений Мравинский) - 2015, FLAC (image+.cue) lossless


 

[Цитировать]

Евгений Мравинский - The Accomplishment of the Romantic Symphony 1885-88
Жанр: Classical
Страна-производитель диска: Austria
Год издания диска: 2015
Издатель (лейбл): Praga Digitals
Номер по каталогу: 350 111
Дата записи: 14.V.1961 (Брамс) & 11.XI.1982 (Чайковский)
Аудиокодек: FLAC
Тип рипа: image+.cue
Битрейт аудио: lossless
Продолжительность: 1:19'19"
Источник: собственный рип
Наличие сканов в содержимом раздачи: да
Треклист:
Johannes Brahms - Symphony No.4, Op.98
1. I. Allegro non troppo
2. II. Andante moderato
3. III. Allegro giocoso - Poco meno presto - Tempo primo
4. IV. Allegro energico e passionato - Piu allegro
Пётр Ильич Чайковский - Симфония №5, соч.64
5. I. Andante - Allegro con anima
6. II. Andante cantabile, con alcuna licenza
7. III. Valse: Allegro moderato
8. IV. Finale: Andante maestoso
Исполнители:
ЗКР Академический симфонический оркестр Ленинградской государственной филармонии
Евгений Мравинский
-

Лог создания рипа

Exact Audio Copy V1.0 beta 1 from 15. November 2010
EAC extraction logfile from 19. October 2015, 20:13
Yevgeny Mravinsky / The Accomplishment of the Romantic Symphony
Used drive : Optiarc DVD RW AD-7203A Adapter: 4 ID: 1
Read mode : SecureUtilize accurate stream : YesDefeat audio cache : YesMake use of C2 pointers : No
Read offset correction : 48Overread into Lead-In and Lead-Out : NoFill up missing offset samples with silence : YesDelete leading and trailing silent blocks : NoNull samples used in CRC calculations : YesUsed interface : Native Win32 interface for Win NT & 2000
Used output format : User Defined EncoderSelected bitrate : 128 kBit/sQuality : HighAdd ID3 tag : NoCommand line compressor : C:\Program Files\FLAC\flac.exeAdditional command line options : -T "COMMENT=Ripped by GFox" -8 -V %s
TOC of the extracted CD
Track | Start | Length | Start sector | End sector --------------------------------------------------------- 1 | 0:00.00 | 12:17.52 | 0 | 55326 2 | 12:17.52 | 9:56.67 | 55327 | 100093 3 | 22:14.44 | 6:01.11 | 100094 | 127179 4 | 28:15.55 | 9:52.59 | 127180 | 171638 5 | 38:08.39 | 13:10.64 | 171639 | 230952 6 | 51:19.28 | 11:35.55 | 230953 | 283132 7 | 62:55.08 | 5:29.64 | 283133 | 307871 8 | 68:24.72 | 10:54.68 | 307872 | 356989
Range status and errors
Selected range
Filename D:\EAC\Yevgeny Mravinsky - The Accomplishment of the Romantic Symphony.wav
Peak level 90.1 % Extraction speed 0.4 X Range quality 100.0 % Test CRC 886DCD74 Copy CRC 886DCD74 Copy OK
No errors occurred
AccurateRip summary
Track 1 accurately ripped (confidence 1) [2C8E5D31]Track 2 accurately ripped (confidence 1) [BC21D496]Track 3 accurately ripped (confidence 1) [4D21372E]Track 4 accurately ripped (confidence 1) [56D27DE3]Track 5 accurately ripped (confidence 1) [AACE52CC]Track 6 accurately ripped (confidence 1) [A380CEBF]Track 7 accurately ripped (confidence 1) [CC77AB69]Track 8 accurately ripped (confidence 1) [79C8AF2A]
All tracks accurately ripped
End of status report
==== Log checksum 691BBDD142C5E9DCCE51317F8FC1AC73CE73F8B07FC64C9FB06D84FAEA4B89C8 ====



Показать сообщения:    

Текущее время: 11-Дек 12:58

Часовой пояс: UTC + 3


Вы не можете начинать темы
Вы не можете отвечать на сообщения
Вы не можете редактировать свои сообщения
Вы не можете удалять свои сообщения
Вы не можете голосовать в опросах
Вы не можете прикреплять файлы к сообщениям
Вы не можете скачивать файлы