(Chamber, Vocal) Richard Strauss & Richard Wagner - Songs / Рихард Штраус & Рихард Вагнер - Песни (Adrianne Pieczonka, soprano, Brian Zeger, piano) - 2015, FLAC (tracks+.cue), lossless


 

[Цитировать]

Richard Strauss & Richard Wagner - Songs (Adrianne Pieczonka, soprano, Brian Zeger, piano)
Жанр: Chamber, Vocal
Страна-производитель диска: CША
Год издания диска: 2015
Издатель (лейбл): Delos
Дата записи: 2014
Аудиокодек: FLAC
Тип рипа: tracks+.cue
Битрейт аудио: lossless
Продолжительность: 51:22
Источник: релизер (sddd)
Исполнители:
Adrianne Pieczonka, soprano,
Brian Zeger, piano.
Recorded at Glenn Gould Studio, Toronto, Canada, August 2014.

Лог создания рипа

Exact Audio Copy V1.0 beta 3 from 29. August 2011
EAC extraction logfile from 18. October 2015, 10:52
Adrianne Pieczonka / Andrianne Pieczonka sings Strauss & Wagner
Used drive : hp DVD RW AD-7251H5 Adapter: 0 ID: 1
Read mode : SecureUtilize accurate stream : YesDefeat audio cache : YesMake use of C2 pointers : No
Read offset correction : 48Overread into Lead-In and Lead-Out : NoFill up missing offset samples with silence : YesDelete leading and trailing silent blocks : NoNull samples used in CRC calculations : YesUsed interface : Native Win32 interface for Win NT & 2000Gap handling : Appended to previous track
Used output format : User Defined EncoderSelected bitrate : 128 kBit/sQuality : HighAdd ID3 tag : NoCommand line compressor : C:\Program Files (x86)\Exact Audio Copy\Flac\flac.exeAdditional command line options : -8 -V -T "ARTIST=%artist%" -T "TITLE=%title%" -T "ALBUM=%albumtitle%" -T "DATE=%year%" -T "TRACKNUMBER=%tracknr%" -T "GENRE=%genre%" -T "PERFORMER=%albuminterpret%" -T "COMPOSER=%composer%" %haslyrics%--tag-from-file=LYRICS="%lyricsfile%"%haslyrics% -T "ALBUMARTIST=%albumartist%" -T "DISCNUMBER=%cdnumber%" -T "TOTALDISCS=%totalcds%" -T "TOTALTRACKS=%numtracks%" -T "COMMENT=%comment%" %source% -o %dest%
TOC of the extracted CD
Track | Start | Length | Start sector | End sector --------------------------------------------------------- 1 | 0:00.00 | 2:08.71 | 0 | 9670 2 | 2:08.71 | 1:52.39 | 9671 | 18109 3 | 4:01.35 | 2:54.21 | 18110 | 31180 4 | 6:55.56 | 2:35.42 | 31181 | 42847 5 | 9:31.23 | 4:50.14 | 42848 | 64611 6 | 14:21.37 | 1:49.24 | 64612 | 72810 7 | 16:10.61 | 3:14.04 | 72811 | 87364 8 | 19:24.65 | 3:34.09 | 87365 | 103423 9 | 22:58.74 | 5:47.32 | 103424 | 129480 10 | 28:46.31 | 2:26.24 | 129481 | 140454 11 | 31:12.55 | 4:27.67 | 140455 | 160546 12 | 35:40.47 | 1:55.49 | 160547 | 169220 13 | 37:36.21 | 3:18.04 | 169221 | 184074 14 | 40:54.25 | 2:46.23 | 184075 | 196547 15 | 43:40.48 | 2:19.45 | 196548 | 207017 16 | 46:00.18 | 1:30.45 | 207018 | 213812 17 | 47:30.63 | 3:49.58 | 213813 | 231045
Track 1
Filename M:\EAC\Andrianne Pieczonka sings Strauss & Wagner\01 - Adrianne Pieczonka; Brian Zeger - Rote Rosen, WoO. 76 (Red Roses).wav
Pre-gap length 0:00:02.00
Peak level 66.9 % Extraction speed 1.6 X Track quality 100.0 % Test CRC 77E72BDF Copy CRC 77E72BDF Track not present in AccurateRip database Copy OK
Track 2
Filename M:\EAC\Andrianne Pieczonka sings Strauss & Wagner\02 - Adrianne Pieczonka; Brian Zeger - Begegnung, WoO. 72 (Encounter).wav
Peak level 67.7 % Extraction speed 1.3 X Track quality 99.9 % Test CRC 1C4C2AE8 Copy CRC 1C4C2AE8 Track not present in AccurateRip database Copy OK
Track 3
Filename M:\EAC\Andrianne Pieczonka sings Strauss & Wagner\03 - Adrianne Pieczonka; Brian Zeger - Die Nacht, Op. 10, No. 3 (The Night).wav
Peak level 44.9 % Extraction speed 1.6 X Track quality 99.9 % Test CRC D50939A9 Copy CRC D50939A9 Track not present in AccurateRip database Copy OK
Track 4
Filename M:\EAC\Andrianne Pieczonka sings Strauss & Wagner\04 - Adrianne Pieczonka; Brian Zeger - Einerlei, Op. 69, No. 3 (Sameness).wav
Peak level 50.9 % Extraction speed 1.9 X Track quality 100.0 % Test CRC 10AC6643 Copy CRC 10AC6643 Track not present in AccurateRip database Copy OK
Track 5
Filename M:\EAC\Andrianne Pieczonka sings Strauss & Wagner\05 - Adrianne Pieczonka; Brian Zeger - Befreit, Op. 39, No. 4 (Released).wav
Peak level 96.0 % Extraction speed 2.1 X Track quality 99.9 % Test CRC 8BEB4453 Copy CRC 8BEB4453 Track not present in AccurateRip database Copy OK
Track 6
Filename M:\EAC\Andrianne Pieczonka sings Strauss & Wagner\06 - Adrianne Pieczonka; Brian Zeger - Zueignung, Op. 10, No. 1 (Dedication).wav
Peak level 98.8 % Extraction speed 2.1 X Track quality 100.0 % Test CRC 8107BBAA Copy CRC 8107BBAA Track not present in AccurateRip database Copy OK
Track 7
Filename M:\EAC\Andrianne Pieczonka sings Strauss & Wagner\07 - Adrianne Pieczonka; Brian Zeger - Wesendonck Lieder, WWV 91- Der Engel (The Angel).wav
Peak level 51.1 % Extraction speed 2.4 X Track quality 100.0 % Test CRC 8064BBAE Copy CRC 8064BBAE Track not present in AccurateRip database Copy OK
Track 8
Filename M:\EAC\Andrianne Pieczonka sings Strauss & Wagner\08 - Adrianne Pieczonka; Brian Zeger - Wesendonck Lieder, WWV 91- Stehe Still! (Stand Still!).wav
Peak level 72.2 % Extraction speed 2.2 X Track quality 99.9 % Test CRC 877BC832 Copy CRC 877BC832 Track not present in AccurateRip database Copy OK
Track 9
Filename M:\EAC\Andrianne Pieczonka sings Strauss & Wagner\09 - Adrianne Pieczonka; Brian Zeger - Wesendonck Lieder, WWV 91- Im Treibhaus (In the Greenhouse).wav
Peak level 44.3 % Extraction speed 2.9 X Track quality 100.0 % Test CRC 39306A58 Copy CRC 39306A58 Track not present in AccurateRip database Copy OK
Track 10
Filename M:\EAC\Andrianne Pieczonka sings Strauss & Wagner\10 - Adrianne Pieczonka; Brian Zeger - Wesendonck Lieder, WWV 91- Schmerzen (Agonies).wav
Peak level 91.7 % Extraction speed 2.7 X Track quality 100.0 % Test CRC C35184F3 Copy CRC C35184F3 Track not present in AccurateRip database Copy OK
Track 11
Filename M:\EAC\Andrianne Pieczonka sings Strauss & Wagner\11 - Adrianne Pieczonka; Brian Zeger - Wesendonck Lieder, WWV 91- Träume (Dreams).wav
Peak level 74.9 % Extraction speed 2.7 X Track quality 99.9 % Test CRC 47F09AAA Copy CRC 47F09AAA Track not present in AccurateRip database Copy OK
Track 12
Filename M:\EAC\Andrianne Pieczonka sings Strauss & Wagner\12 - Adrianne Pieczonka; Brian Zeger - Du meines Herzens Krönelein, Op. 21, No. 2 (You, my Heart's Coronet).wav
Peak level 49.4 % Extraction speed 2.8 X Track quality 100.0 % Test CRC 2FD45AB2 Copy CRC 2FD45AB2 Track not present in AccurateRip database Copy OK
Track 13
Filename M:\EAC\Andrianne Pieczonka sings Strauss & Wagner\13 - Adrianne Pieczonka; Brian Zeger - Ruhe, meine Seele! Op. 27, No. 1 (Rest My Soul!).wav
Peak level 85.1 % Extraction speed 3.2 X Track quality 100.0 % Test CRC 5891DB81 Copy CRC 5891DB81 Track not present in AccurateRip database Copy OK
Track 14
Filename M:\EAC\Andrianne Pieczonka sings Strauss & Wagner\14 - Adrianne Pieczonka; Brian Zeger - Traum durch die Dämmerung, Op. 29, No. 1 (Dream into Dusk).wav
Peak level 42.2 % Extraction speed 2.6 X Track quality 99.9 % Test CRC D9AB03D4 Copy CRC D9AB03D4 Track not present in AccurateRip database Copy OK
Track 15
Filename M:\EAC\Andrianne Pieczonka sings Strauss & Wagner\15 - Adrianne Pieczonka; Brian Zeger - Meinem Kinde, Op. 37, No. 3 (To My Child).wav
Peak level 56.8 % Extraction speed 3.1 X Track quality 100.0 % Test CRC DA5B0CDD Copy CRC DA5B0CDD Track not present in AccurateRip database Copy OK
Track 16
Filename M:\EAC\Andrianne Pieczonka sings Strauss & Wagner\16 - Adrianne Pieczonka; Brian Zeger - Nichts, Op. 10, No. 2 (Nothing).wav
Peak level 91.6 % Extraction speed 2.0 X Track quality 99.8 % Test CRC 46C53EF3 Copy CRC 46C53EF3 Track not present in AccurateRip database Copy OK
Track 17
Filename M:\EAC\Andrianne Pieczonka sings Strauss & Wagner\17 - Adrianne Pieczonka; Brian Zeger - Morgen! Op. 27, No. 4 (Tomorrow!).wav
Peak level 32.2 % Extraction speed 3.0 X Track quality 99.9 % Test CRC 21D08DF9 Copy CRC 21D08DF9 Track not present in AccurateRip database Copy OK
None of the tracks are present in the AccurateRip database
No errors occurred
End of status report
---- CUETools DB Plugin V2.1.3
[CTDB TOCID: uCrxyQoq207J7MkMebpgR2EUTGA-] found, Submit result: uCrxyQoq207J7MkMebpgR2EUTGA- has been confirmed[410c1ab3] (1/1) Accurately ripped
==== Log checksum 060236E01B074C8888F495928DC0D641289DC95B74E60ED6E5557493F5BE21B7 ====

Содержание индексной карты (.CUE)

REM GENRE ClassicalREM DATE 2015REM DISCID E60C0811REM COMMENT "ExactAudioCopy v1.0b3"CATALOG 0134913474240PERFORMER "Adrianne Pieczonka"TITLE "Adrianne Pieczonka sings Strauss & Wagner"FILE "Adrianne Pieczonka sings Strauss & Wagner\01 - Adrianne Pieczonka; Brian Zeger - Rote Rosen, WoO. 76 (Red Roses).wav" WAVE TRACK 01 AUDIO TITLE "Rote Rosen, WoO. 76 (Red Roses)" PERFORMER "Adrianne Pieczonka; Brian Zeger" ISRC USASX1447401 INDEX 01 00:00:00FILE "Adrianne Pieczonka sings Strauss & Wagner\02 - Adrianne Pieczonka; Brian Zeger - Begegnung, WoO. 72 (Encounter).wav" WAVE TRACK 02 AUDIO TITLE "Begegnung, WoO. 72 (Encounter)" PERFORMER "Adrianne Pieczonka; Brian Zeger" ISRC USASX1447402 INDEX 01 00:00:00FILE "Adrianne Pieczonka sings Strauss & Wagner\03 - Adrianne Pieczonka; Brian Zeger - Die Nacht, Op. 10, No. 3 (The Night).wav" WAVE TRACK 03 AUDIO TITLE "Die Nacht, Op. 10, No. 3 (The Night)" PERFORMER "Adrianne Pieczonka; Brian Zeger" ISRC USASX1447403 INDEX 01 00:00:00FILE "Adrianne Pieczonka sings Strauss & Wagner\04 - Adrianne Pieczonka; Brian Zeger - Einerlei, Op. 69, No. 3 (Sameness).wav" WAVE TRACK 04 AUDIO TITLE "Einerlei, Op. 69, No. 3 (Sameness)" PERFORMER "Adrianne Pieczonka; Brian Zeger" ISRC USASX1447404 INDEX 01 00:00:00FILE "Adrianne Pieczonka sings Strauss & Wagner\05 - Adrianne Pieczonka; Brian Zeger - Befreit, Op. 39, No. 4 (Released).wav" WAVE TRACK 05 AUDIO TITLE "Befreit, Op. 39, No. 4 (Released)" PERFORMER "Adrianne Pieczonka; Brian Zeger" ISRC USASX1447405 INDEX 01 00:00:00FILE "Adrianne Pieczonka sings Strauss & Wagner\06 - Adrianne Pieczonka; Brian Zeger - Zueignung, Op. 10, No. 1 (Dedication).wav" WAVE TRACK 06 AUDIO TITLE "Zueignung, Op. 10, No. 1 (Dedication)" PERFORMER "Adrianne Pieczonka; Brian Zeger" ISRC USASX1447406 INDEX 01 00:00:00FILE "Adrianne Pieczonka sings Strauss & Wagner\07 - Adrianne Pieczonka; Brian Zeger - Wesendonck Lieder, WWV 91- Der Engel (The Angel).wav" WAVE TRACK 07 AUDIO TITLE "Wesendonck Lieder, WWV 91: Der Engel (The Angel)" PERFORMER "Adrianne Pieczonka; Brian Zeger" ISRC USASX1447407 INDEX 01 00:00:00FILE "Adrianne Pieczonka sings Strauss & Wagner\08 - Adrianne Pieczonka; Brian Zeger - Wesendonck Lieder, WWV 91- Stehe Still! (Stand Still!).wav" WAVE TRACK 08 AUDIO TITLE "Wesendonck Lieder, WWV 91: Stehe Still! (Stand Still!)" PERFORMER "Adrianne Pieczonka; Brian Zeger" ISRC USASX1447408 INDEX 01 00:00:00FILE "Adrianne Pieczonka sings Strauss & Wagner\09 - Adrianne Pieczonka; Brian Zeger - Wesendonck Lieder, WWV 91- Im Treibhaus (In the Greenhouse).wav" WAVE TRACK 09 AUDIO TITLE "Wesendonck Lieder, WWV 91: Im Treibhaus (In the Greenhouse)" PERFORMER "Adrianne Pieczonka; Brian Zeger" ISRC USASX1447409 INDEX 01 00:00:00FILE "Adrianne Pieczonka sings Strauss & Wagner\10 - Adrianne Pieczonka; Brian Zeger - Wesendonck Lieder, WWV 91- Schmerzen (Agonies).wav" WAVE TRACK 10 AUDIO TITLE "Wesendonck Lieder, WWV 91: Schmerzen (Agonies)" PERFORMER "Adrianne Pieczonka; Brian Zeger" ISRC USASX1447410 INDEX 01 00:00:00FILE "Adrianne Pieczonka sings Strauss & Wagner\11 - Adrianne Pieczonka; Brian Zeger - Wesendonck Lieder, WWV 91- Trдume (Dreams).wav" WAVE TRACK 11 AUDIO TITLE "Wesendonck Lieder, WWV 91: Trдume (Dreams)" PERFORMER "Adrianne Pieczonka; Brian Zeger" ISRC USASX1447411 INDEX 01 00:00:00FILE "Adrianne Pieczonka sings Strauss & Wagner\12 - Adrianne Pieczonka; Brian Zeger - Du meines Herzens Krцnelein, Op. 21, No. 2 (You, my Heart's Coronet).wav" WAVE TRACK 12 AUDIO TITLE "Du meines Herzens Krцnelein, Op. 21, No. 2 (You, my Heart's Coronet)" PERFORMER "Adrianne Pieczonka; Brian Zeger" ISRC USASX1447412 INDEX 01 00:00:00FILE "Adrianne Pieczonka sings Strauss & Wagner\13 - Adrianne Pieczonka; Brian Zeger - Ruhe, meine Seele! Op. 27, No. 1 (Rest My Soul!).wav" WAVE TRACK 13 AUDIO TITLE "Ruhe, meine Seele! Op. 27, No. 1 (Rest My Soul!)" PERFORMER "Adrianne Pieczonka; Brian Zeger" ISRC USASX1447413 INDEX 01 00:00:00FILE "Adrianne Pieczonka sings Strauss & Wagner\14 - Adrianne Pieczonka; Brian Zeger - Traum durch die Dдmmerung, Op. 29, No. 1 (Dream into Dusk).wav" WAVE TRACK 14 AUDIO TITLE "Traum durch die Dдmmerung, Op. 29, No. 1 (Dream into Dusk)" PERFORMER "Adrianne Pieczonka; Brian Zeger" ISRC USASX1447414 INDEX 01 00:00:00FILE "Adrianne Pieczonka sings Strauss & Wagner\15 - Adrianne Pieczonka; Brian Zeger - Meinem Kinde, Op. 37, No. 3 (To My Child).wav" WAVE TRACK 15 AUDIO TITLE "Meinem Kinde, Op. 37, No. 3 (To My Child) " PERFORMER "Adrianne Pieczonka; Brian Zeger" ISRC USASX1447415 INDEX 01 00:00:00FILE "Adrianne Pieczonka sings Strauss & Wagner\16 - Adrianne Pieczonka; Brian Zeger - Nichts, Op. 10, No. 2 (Nothing).wav" WAVE TRACK 16 AUDIO TITLE "Nichts, Op. 10, No. 2 (Nothing)" PERFORMER "Adrianne Pieczonka; Brian Zeger" ISRC USASX1447416 INDEX 01 00:00:00FILE "Adrianne Pieczonka sings Strauss & Wagner\17 - Adrianne Pieczonka; Brian Zeger - Morgen! Op. 27, No. 4 (Tomorrow!).wav" WAVE TRACK 17 AUDIO TITLE "Morgen! Op. 27, No. 4 (Tomorrow!)" PERFORMER "Adrianne Pieczonka; Brian Zeger" ISRC USASX1447417 INDEX 01 00:00:00

Треклист

SIX SONGS by RICHARD STRAUSS
1. Rote Rosen, WoO. 76 • Red Roses (2:08)
2. Begegnung, WoO. 72 • Encounter (1:52)
3. Die Nacht, Op. 10, No. 3 • The Night (2:54)
4. Einerlei, Op. 69, No. 3 • Sameness (2:35)
5. Befreit, Op. 39, No. 4 • Released (4:50)
6. Zueignung, Op. 10, No. 1 • Dedication (1:49)
RICHARD WAGNER
Wesendonck-Lieder, WWV 91
7. Der Engel • The Angel (3:14)
8. Stehe Still! • Stand Still! (3:34)
9. Im Treibhaus • In the Greenhouse (5:47)
10. Schmerzen • Agonies (2:26)
11. Träume • Dreams (4:27)
MORE SONGS by RICHARD STRAUSS
12. Du meines Herzens Krönelein, Op. 21, No. 2 • You, my Heart’s Coronet (1:55)
13. Ruhe, meine Seele! Op. 27, No. 1 • Rest, My Soul! (3:18)
14. Traum durch die Dämmerung, Op. 29, No. 1 • Dream into Dusk (2:46)
15. Meinem Kinde, Op. 37, No. 3 • To My Child (2:19)
16. Nichts, Op. 10, No. 2 • Nothing (1:30)
17. Morgen! Op. 27, No. 4 • Tomorrow! (3:49)[/pre]



Показать сообщения:    

Текущее время: 06-Дек 15:15

Часовой пояс: UTC + 3


Вы не можете начинать темы
Вы не можете отвечать на сообщения
Вы не можете редактировать свои сообщения
Вы не можете удалять свои сообщения
Вы не можете голосовать в опросах
Вы не можете прикреплять файлы к сообщениям
Вы не можете скачивать файлы