(Opera) Georges Bizet - Les Pecheurs de Perles / Жорж Бизе - Искатели жемчуга (Daniel Oren; Desiree Rancatore, Luca Grassi, Celso Albelo, Alastair Miles), 2012 - live from Teatro dell'Opera di Salerno / FLAC (image+.cue), lossless


 

[Цитировать]

Georges Bizet - Les Pécheurs de Perles / Жорж Бизе - Искатели жемчуга (Daniel Oren; Desirée Rancatore, Luca Grassi, Celso Albelo, Alastair Miles), Teatro dell'Opera di Salerno
Жанр: Opera
Страна-производитель диска: Дания
Год издания диска: 2012
Издатель (лейбл): Brilliant Classics
Дата записи: 2012
Аудиокодек: FLAC
Тип рипа: image+.cue
Битрейт аудио: lossless
Источник: релизер (Canarias es Musica)
Исполнители:
Leila - Desirée Rancatore,
Zurga - Luca Grassi,
Nadir - Celso Albelo,
Nourabad - Alastair Miles.
Conductor - Daniel Oren,
Orchestra Filarmonica Salérnitana ''Giuseppe Verdi'',
Chorus of Teatro dell'Opera di Salerno.
Recorded live at the Teatro dell'Opera di Salerno, Italy, May 16-20, 2012.

Лог создания рипаЛог создания рипа CD 1

X Lossless Decoder version 20141129a (148.2)
XLD extraction logfile from 2015-10-19 13:21:34 +0100
Celso Albelo / Les Pecheurs de Perles - Disc 1
Used drive : MATSHITA DVD-R UJ-8A8 (revision HB14)Media type : Pressed CD
Ripper mode : XLD Secure RipperDisable audio cache : OK for the drive with a cache less than 1375KiBMake use of C2 pointers : NORead offset correction : 102Max retry count : 20Gap status : Analyzed, Appended
TOC of the extracted CD Track | Start | Length | Start sector | End sector --------------------------------------------------------- 1 | 00:00:00 | 01:53:47 | 0 | 8521 2 | 01:53:47 | 03:30:70 | 8522 | 24341 3 | 05:24:42 | 03:50:68 | 24342 | 41659 4 | 09:15:35 | 02:09:47 | 41660 | 51381 5 | 11:25:07 | 02:21:59 | 51382 | 62015 6 | 13:46:66 | 05:12:19 | 62016 | 85434 7 | 18:59:10 | 03:35:05 | 85435 | 101564 8 | 22:34:15 | 02:03:69 | 101565 | 110858 9 | 24:38:09 | 07:03:60 | 110859 | 142643 10 | 31:41:69 | 05:17:71 | 142644 | 166489 11 | 36:59:65 | 01:55:20 | 166490 | 175134 12 | 38:55:10 | 05:57:61 | 175135 | 201970
AccurateRip Summary (DiscID: 0011e235-00ac1aee-920a840c) Track 01 : OK (v2, confidence 1/1) Track 02 : OK (v2, confidence 1/1) Track 03 : OK (v2, confidence 1/1) Track 04 : OK (v2, confidence 1/1) Track 05 : OK (v2, confidence 1/1) Track 06 : OK (v2, confidence 1/1) Track 07 : OK (v2, confidence 1/1) Track 08 : OK (v2, confidence 1/1) Track 09 : OK (v2, confidence 1/1) Track 10 : OK (v2, confidence 1/1) Track 11 : OK (v2, confidence 1/1) Track 12 : OK (v2, confidence 1/1) ->All tracks accurately ripped.
All Tracks Filename : /Users/Juan/Downloads/GBizetPechPerDOre/Les Pecheurs de Perles - Disc 1.flac CRC32 hash : 70A0358B CRC32 hash (skip zero) : DE0B1B93 Statistics Read error : 0 Jitter error (maybe fixed) : 0 Retry sector count : 0 Damaged sector count : 0
Track 01 Pre-gap length : 00:02:00
CRC32 hash : 7990FABF CRC32 hash (skip zero) : 9C0A5104 AccurateRip v1 signature : 8A83069C AccurateRip v2 signature : A11964FC ->Accurately ripped (v2, confidence 1/1) Statistics Read error : 0 Jitter error (maybe fixed) : 0 Retry sector count : 0 Damaged sector count : 0
Track 02
CRC32 hash : CF54AC37 CRC32 hash (skip zero) : 17E76862 AccurateRip v1 signature : 365D9DD0 AccurateRip v2 signature : 5D755288 ->Accurately ripped (v2, confidence 1/1) Statistics Read error : 0 Jitter error (maybe fixed) : 0 Retry sector count : 0 Damaged sector count : 0
Track 03
CRC32 hash : 620601F9 CRC32 hash (skip zero) : ACA492A2 AccurateRip v1 signature : 75639447 AccurateRip v2 signature : EA371906 ->Accurately ripped (v2, confidence 1/1) Statistics Read error : 0 Jitter error (maybe fixed) : 0 Retry sector count : 0 Damaged sector count : 0
Track 04
CRC32 hash : 4C1DE72F CRC32 hash (skip zero) : 4676942A AccurateRip v1 signature : 8B8FB3F9 AccurateRip v2 signature : 5FDB30E6 ->Accurately ripped (v2, confidence 1/1) Statistics Read error : 0 Jitter error (maybe fixed) : 0 Retry sector count : 0 Damaged sector count : 0
Track 05
CRC32 hash : D131F073 CRC32 hash (skip zero) : 87486964 AccurateRip v1 signature : E3BFCBB6 AccurateRip v2 signature : ECE4C3BF ->Accurately ripped (v2, confidence 1/1) Statistics Read error : 0 Jitter error (maybe fixed) : 0 Retry sector count : 0 Damaged sector count : 0
Track 06
CRC32 hash : CF8167ED CRC32 hash (skip zero) : 93F9503B AccurateRip v1 signature : A3DB498A AccurateRip v2 signature : 91CECB8E ->Accurately ripped (v2, confidence 1/1) Statistics Read error : 0 Jitter error (maybe fixed) : 0 Retry sector count : 0 Damaged sector count : 0
Track 07
CRC32 hash : 72FAAE94 CRC32 hash (skip zero) : 0A1280B1 AccurateRip v1 signature : 8F48DC1A AccurateRip v2 signature : 04F48DE1 ->Accurately ripped (v2, confidence 1/1) Statistics Read error : 0 Jitter error (maybe fixed) : 0 Retry sector count : 0 Damaged sector count : 0
Track 08
CRC32 hash : BEBCD2D5 CRC32 hash (skip zero) : B593D2FE AccurateRip v1 signature : C9788612 AccurateRip v2 signature : 511E3BE7 ->Accurately ripped (v2, confidence 1/1) Statistics Read error : 0 Jitter error (maybe fixed) : 0 Retry sector count : 0 Damaged sector count : 0
Track 09
CRC32 hash : 7238A250 CRC32 hash (skip zero) : 5E8BB048 AccurateRip v1 signature : 9C29B9B4 AccurateRip v2 signature : B464D9D6 ->Accurately ripped (v2, confidence 1/1) Statistics Read error : 0 Jitter error (maybe fixed) : 0 Retry sector count : 0 Damaged sector count : 0
Track 10
CRC32 hash : 4B5BFE0C CRC32 hash (skip zero) : 9BD67DA4 AccurateRip v1 signature : B604D85F AccurateRip v2 signature : 932E45DF ->Accurately ripped (v2, confidence 1/1) Statistics Read error : 0 Jitter error (maybe fixed) : 0 Retry sector count : 0 Damaged sector count : 0
Track 11
CRC32 hash : E3D684E3 CRC32 hash (skip zero) : 28E8E754 AccurateRip v1 signature : 3072CABA AccurateRip v2 signature : 60AAE8DA ->Accurately ripped (v2, confidence 1/1) Statistics Read error : 0 Jitter error (maybe fixed) : 0 Retry sector count : 0 Damaged sector count : 0
Track 12
CRC32 hash : 5C6EE4B8 CRC32 hash (skip zero) : C1D06B93 AccurateRip v1 signature : C0461E8D AccurateRip v2 signature : 712386DB ->Accurately ripped (v2, confidence 1/1) Statistics Read error : 0 Jitter error (maybe fixed) : 0 Retry sector count : 0 Damaged sector count : 0
No errors occurred
End of status report

Лог создания рипа CD 2

X Lossless Decoder version 20141129a (148.2)
XLD extraction logfile from 2015-10-19 13:39:27 +0100
Celso Albelo / Pecheurs de Perles - Disc 2
Used drive : MATSHITA DVD-R UJ-8A8 (revision HB14)Media type : Pressed CD
Ripper mode : XLD Secure RipperDisable audio cache : OK for the drive with a cache less than 1375KiBMake use of C2 pointers : NORead offset correction : 102Max retry count : 20Gap status : Analyzed, Appended
TOC of the extracted CD Track | Start | Length | Start sector | End sector --------------------------------------------------------- 1 | 00:00:00 | 06:53:04 | 0 | 30978 2 | 06:53:04 | 07:29:05 | 30979 | 64658 3 | 14:22:09 | 01:58:72 | 64659 | 73580 4 | 16:21:06 | 07:48:08 | 73581 | 108688 5 | 24:09:14 | 09:22:47 | 108689 | 150885 6 | 33:31:61 | 05:52:30 | 150886 | 177315 7 | 39:24:16 | 08:29:67 | 177316 | 215557 8 | 47:54:08 | 01:42:26 | 215558 | 223233 9 | 49:36:34 | 02:06:07 | 223234 | 232690 10 | 51:42:41 | 02:56:60 | 232691 | 245950 11 | 54:39:26 | 01:23:32 | 245951 | 252207 12 | 56:02:58 | 02:36:62 | 252208 | 263969
AccurateRip Summary (DiscID: 001f1faa-0119be18-ab0dbf0c) Track 01 : OK (v2, confidence 1/1) Track 02 : OK (v2, confidence 1/1) Track 03 : OK (v2, confidence 1/1) Track 04 : OK (v2, confidence 1/1) Track 05 : OK (v2, confidence 1/1) Track 06 : OK (v2, confidence 1/1) Track 07 : OK (v2, confidence 1/1) Track 08 : OK (v2, confidence 1/1) Track 09 : OK (v2, confidence 1/1) Track 10 : OK (v2, confidence 1/1) Track 11 : OK (v2, confidence 1/1) Track 12 : OK (v2, confidence 1/1) ->All tracks accurately ripped.
All Tracks Filename : /Users/Juan/Downloads/GBizetPechPerDOre/Pecheurs de Perles - Disc 2.flac CRC32 hash : FD658D3D CRC32 hash (skip zero) : 0F380838 Statistics Read error : 0 Jitter error (maybe fixed) : 0 Retry sector count : 0 Damaged sector count : 0
Track 01 Pre-gap length : 00:02:00
CRC32 hash : 207B06DB CRC32 hash (skip zero) : E37EC9E5 AccurateRip v1 signature : 80A91A29 AccurateRip v2 signature : 3D55F7AF ->Accurately ripped (v2, confidence 1/1) Statistics Read error : 0 Jitter error (maybe fixed) : 0 Retry sector count : 0 Damaged sector count : 0
Track 02
CRC32 hash : 7A57F0AB CRC32 hash (skip zero) : B4BAE4D2 AccurateRip v1 signature : 68EE4105 AccurateRip v2 signature : DF3D7D96 ->Accurately ripped (v2, confidence 1/1) Statistics Read error : 0 Jitter error (maybe fixed) : 0 Retry sector count : 0 Damaged sector count : 0
Track 03
CRC32 hash : 0C6E7506 CRC32 hash (skip zero) : 5AE8C4B1 AccurateRip v1 signature : 373FDC75 AccurateRip v2 signature : 544A2C7E ->Accurately ripped (v2, confidence 1/1) Statistics Read error : 0 Jitter error (maybe fixed) : 0 Retry sector count : 0 Damaged sector count : 0
Track 04
CRC32 hash : 843C4816 CRC32 hash (skip zero) : 93CE25DF AccurateRip v1 signature : 8C1AC30C AccurateRip v2 signature : B6FFAAB6 ->Accurately ripped (v2, confidence 1/1) Statistics Read error : 0 Jitter error (maybe fixed) : 0 Retry sector count : 0 Damaged sector count : 0
Track 05
CRC32 hash : CC987881 CRC32 hash (skip zero) : E4315253 AccurateRip v1 signature : 55720318 AccurateRip v2 signature : ABFBBD7B ->Accurately ripped (v2, confidence 1/1) Statistics Read error : 0 Jitter error (maybe fixed) : 0 Retry sector count : 0 Damaged sector count : 0
Track 06
CRC32 hash : FA1C0B14 CRC32 hash (skip zero) : 59AF8A09 AccurateRip v1 signature : C1C53D01 AccurateRip v2 signature : 41DF2AA5 ->Accurately ripped (v2, confidence 1/1) Statistics Read error : 0 Jitter error (maybe fixed) : 0 Retry sector count : 0 Damaged sector count : 0
Track 07
CRC32 hash : D4152E2B CRC32 hash (skip zero) : F240B1AB AccurateRip v1 signature : E78207E8 AccurateRip v2 signature : 98E41497 ->Accurately ripped (v2, confidence 1/1) Statistics Read error : 0 Jitter error (maybe fixed) : 0 Retry sector count : 0 Damaged sector count : 0
Track 08
CRC32 hash : 1C80B0B8 CRC32 hash (skip zero) : E45656B8 AccurateRip v1 signature : B4239F6C AccurateRip v2 signature : 9AD7E2C7 ->Accurately ripped (v2, confidence 1/1) Statistics Read error : 0 Jitter error (maybe fixed) : 0 Retry sector count : 0 Damaged sector count : 0
Track 09
CRC32 hash : 3F799BEA CRC32 hash (skip zero) : D08883AC AccurateRip v1 signature : 1524CB42 AccurateRip v2 signature : FCF0AF55 ->Accurately ripped (v2, confidence 1/1) Statistics Read error : 0 Jitter error (maybe fixed) : 0 Retry sector count : 0 Damaged sector count : 0
Track 10
CRC32 hash : 81AC9D26 CRC32 hash (skip zero) : 43E022F6 AccurateRip v1 signature : AD5689F9 AccurateRip v2 signature : 205E69C9 ->Accurately ripped (v2, confidence 1/1) Statistics Read error : 0 Jitter error (maybe fixed) : 0 Retry sector count : 0 Damaged sector count : 0
Track 11
CRC32 hash : 7C4B0E7B CRC32 hash (skip zero) : D045F9B2 AccurateRip v1 signature : 833567CC AccurateRip v2 signature : D8DE2961 ->Accurately ripped (v2, confidence 1/1) Statistics Read error : 0 Jitter error (maybe fixed) : 0 Retry sector count : 0 Damaged sector count : 0
Track 12
CRC32 hash : EFC13CF6 CRC32 hash (skip zero) : CAC34C54 AccurateRip v1 signature : 2779B408 AccurateRip v2 signature : F3FC4D46 ->Accurately ripped (v2, confidence 1/1) Statistics Read error : 0 Jitter error (maybe fixed) : 0 Retry sector count : 0 Damaged sector count : 0
No errors occurred
End of status report

Содержание индексной карты (.CUE)Содержание индексной карты (.CUE) CD 1

TITLE "Les Pecheurs de Perles - Disc 1"PERFORMER "Celso Albelo"REM GENRE "Opera"REM DISCID 920A840CFILE "Les Pecheurs de Perles - Disc 1.flac" WAVE TRACK 01 AUDIO TITLE "Prelude" SONGWRITER "Georges Bizet" ISRC NLY331214042 INDEX 01 00:00:00 TRACK 02 AUDIO TITLE "Sur la greve en feu" SONGWRITER "Georges Bizet" ISRC NLY331214043 INDEX 01 01:53:47 TRACK 03 AUDIO TITLE "Amis, interrompez vos danses" SONGWRITER "Georges Bizet" ISRC NLY331214044 INDEX 01 05:24:42 TRACK 04 AUDIO TITLE "Demeure parmi nous" SONGWRITER "Georges Bizet" ISRC NLY331214045 INDEX 01 09:15:35 TRACK 05 AUDIO TITLE "C'est toi, toi qu'efin je revois!" SONGWRITER "Georges Bizet" ISRC NLY331214046 INDEX 01 11:25:07 TRACK 06 AUDIO TITLE "Au fond du temple saint" SONGWRITER "Georges Bizet" ISRC NLY331214047 INDEX 01 13:46:66 TRACK 07 AUDIO TITLE "Que vois-je?" SONGWRITER "Georges Bizet" ISRC NLY331214048 INDEX 01 18:59:10 TRACK 08 AUDIO TITLE "C'est elle!" SONGWRITER "Georges Bizet" ISRC NLY331214049 INDEX 01 22:34:15 TRACK 09 AUDIO TITLE "Seule au milieu de nous" SONGWRITER "Georges Bizet" ISRC NLY331214050 INDEX 01 24:38:09 TRACK 10 AUDIO TITLE "Je crois entendre encore" SONGWRITER "Georges Bizet" ISRC NLY331214051 INDEX 01 31:41:69 TRACK 11 AUDIO TITLE "Le ciel est bleu!" SONGWRITER "Georges Bizet" ISRC NLY331214052 INDEX 01 36:59:65 TRACK 12 AUDIO TITLE "O Dieu Brahma!" SONGWRITER "Georges Bizet" ISRC NLY331214053 INDEX 01 38:55:10

Содержание индексной карты (.CUE) CD 2

TITLE "Pecheurs de Perles - Disc 2"PERFORMER "Celso Albelo"REM GENRE "Opera"REM DISCID AB0DBF0CFILE "Pecheurs de Perles - Disc 2.flac" WAVE TRACK 01 AUDIO TITLE "La, la, la... L'ombre descend des cieux" SONGWRITER "Georges Bizet" ISRC NLY331214054 INDEX 01 00:00:00 TRACK 02 AUDIO TITLE "Me voila seule dans la nuit" SONGWRITER "Georges Bizet" ISRC NLY331214055 INDEX 01 06:53:04 TRACK 03 AUDIO TITLE "De mon amie" SONGWRITER "Georges Bizet" ISRC NLY331214056 INDEX 01 14:22:09 TRACK 04 AUDIO TITLE "Leila!... Dieu puissant" SONGWRITER "Georges Bizet" ISRC NLY331214057 INDEX 01 16:21:06 TRACK 05 AUDIO TITLE "Ah! revenez a la raison!" SONGWRITER "Georges Bizet" ISRC NLY331214058 INDEX 01 24:09:14 TRACK 06 AUDIO TITLE "L'orage s'est calme" SONGWRITER "Georges Bizet" ISRC NLY331214059 INDEX 01 33:31:61 TRACK 07 AUDIO TITLE "Qu'ai-je vu?... Je fremis, je chancelle" SONGWRITER "Georges Bizet" ISRC NLY331214060 INDEX 01 39:24:16 TRACK 08 AUDIO TITLE "Entends au loin ce bruit de fete!" SONGWRITER "Georges Bizet" ISRC NLY331214061 INDEX 01 47:54:08 TRACK 09 AUDIO TITLE "Des que le soleil" SONGWRITER "Georges Bizet" ISRC NLYS31214062 INDEX 01 49:36:34 TRACK 10 AUDIO TITLE "Sombres divinites" SONGWRITER "Georges Bizet" ISRC NLY331214063 INDEX 01 51:42:41 TRACK 11 AUDIO TITLE "O lumiere sainte" SONGWRITER "Georges Bizet" ISRC NLY331214064 INDEX 01 54:39:26 TRACK 12 AUDIO TITLE "Ce sont eux, les voici!" SONGWRITER "Georges Bizet" ISRC NLY331214065 INDEX 01 56:02:58

Треклист

1. Prelude [01:53];
Act 1:
2. Introduction. Sur la Grève en feu (Chorus) [03:30];
3. Scène et Choeur. Amis, interrompez vos Danses (Zurga, Chorus, Nadir) [03:50];
4. Récit et Reprise du Choeur dansé. Demeure parmi nous, Nadir (Zurga, Chorus, Nadir) [02:09];
5. Récit et Duo. C'est toi, toi qu'enfin je revois! (Zurga, Nadir) [02:21];
6. Duo. Au fond du Temple saint (Zurga, Nadir) [05:12];
7. Récit, Choeur et Scène. Que vois-je? (Zurga, Nadir, Chorus) [03:35];
8. Choeur. [i]C'est elle! Elle vient!? Sois la Bienvenue (Chorus) [02:03];
9. Scène et Choeur. Seule au Milieu de nous (Zurga, Léïla, Chorus, Nourabad) [07:03];
10. Récit et Romance. À cette Voix? Je crois entendre encore (Nadir) [05:17];
11. Final. Le Ciel est bleu! (Chorus, Nourabad, Nadir) [01:55];
12. Air et choeur. Ô Dieu Brahma! (Léïla, Chorus, Nadir) [05:57];
Act 2:
13. Entr'acte, Choeur et Scène. La, la, la? L'Ombre descend des Cieux (Chorus, Léïla, Nourabad) [06:53];
14. Récit et cavatine. Me voilà seule dans la nuit (Léïla) [07:29];
15. Chanson. De mon Amie (Nadir, Léïla) [01:58];
16. Duo. Léïla!? Dieu puissant (Nadir, Léïla) [07:48];
17. Final. Ah! Revenez à la Raison! (Léïla, Nadir, Nourabad, Chorus, Zurga) [09:22];
Act 3:
18. Entr'acte, Récit et Air. L'Orage s'est Calmé? Ô Nadir (Zurga) [05:52];
19. Scène et Duo. Qu'ai-je vu?? Je frémis, je chancelle (Zurga, Léïla) [08:29];
20. Scène. Entends au loin ce bruit de Fête! (Nourabad, Léïla, Zurga) [01:42];
21. Choeur dansé. Dès que le soleil (Chorus) [02:06];
22. Scène et Choeur. Sombres divinités (Nourabad, Chorus, Zurga, Léïla, Nadir) [02:56];
23. Trio. Ô lumière Sainte (Léïla, Nadir, Zurga) [01:23];
24. Final. Ce sont eux, les Voici! (Zurga, Nadir, Léïla, Nourabad, Chorus) [02:36].



Показать сообщения:    

Текущее время: 09-Дек 18:32

Часовой пояс: UTC + 3


Вы не можете начинать темы
Вы не можете отвечать на сообщения
Вы не можете редактировать свои сообщения
Вы не можете удалять свои сообщения
Вы не можете голосовать в опросах
Вы не можете прикреплять файлы к сообщениям
Вы не можете скачивать файлы