(Opera) Gaetano Donizetti - Ne m'oubliez pas (unfinished opera) & Rare Operatic Arias / Гаэтано Доницетти - Незабудка [не оконч.] (James Judd; Margreta Elkins, Alexander Oliver, Christian du Plessis), 1979 - Studio recording / 1994, FLAC (tr


 

[Цитировать]

Gaetano Donizetti - Ne m'oubliez pas (unfinished opera) & Operatic Arias (James Judd; Margreta Elkins, Alexander Oliver, Christian du Plessis)
Жанр: Opera
Страна-производитель диска: США
Год издания диска: 1994
Издатель (лейбл): Opera Rara
Дата записи: 1979
Аудиокодек: FLAC
Тип рипа: tracks+.cue
Битрейт аудио: lossless
Продолжительность: 47:19
Источник: релизер (Guillermo)
Исполнители:
Margreta Elkins, mezzo-soprano,
Alexander Oliver, tenor,
Christian du Plessis, baritone.
James Judd, conductor,
Philharmonia Orchestra,
Geoffrey Mitchell Chorus.
Recorded at Henry Wood Hall, London, England, January, 1979.

Лог создания рипа

Exact Audio Copy V1.0 beta 3 from 29. August 2011
EAC extraction logfile from 18. October 2015, 9:37
Margreta Elkins, Alexander Oliver, Christian du Plessis / Donizetti - Ne m'oubliez pas
Used drive : HL-DT-STDVDRAM GH24NSC0 Adapter: 3 ID: 0
Read mode : SecureUtilize accurate stream : YesDefeat audio cache : YesMake use of C2 pointers : No
Read offset correction : 6Overread into Lead-In and Lead-Out : NoFill up missing offset samples with silence : YesDelete leading and trailing silent blocks : NoNull samples used in CRC calculations : YesUsed interface : Native Win32 interface for Win NT & 2000Gap handling : Appended to previous track
Used output format : User Defined EncoderSelected bitrate : 768 kBit/sQuality : HighAdd ID3 tag : NoCommand line compressor : C:\Program Files (x86)\Exact Audio Copy\FLAC\FLAC.EXEAdditional command line options : -8 -V -T "ARTIST=%artist%" -T "TITLE=%title%" -T "ALBUM=%albumtitle%" -T "DATE=%year%" -T "TRACKNUMBER=%tracknr%" -T "GENRE=%genre%" -T "PERFORMER=%albuminterpret%" -T "COMPOSER=%composer%" %haslyrics%--tag-from-file=LYRICS="%lyricsfile%"%haslyrics% -T "ALBUMARTIST=%albumartist%" -T "DISCNUMBER=%cdnumber%" -T "TOTALDISCS=%totalcds%" -T "TOTALTRACKS=%numtracks%" -T "COMMENT=%comment%" %source% -o %dest%
TOC of the extracted CD
Track | Start | Length | Start sector | End sector --------------------------------------------------------- 1 | 0:00.00 | 3:41.67 | 0 | 16641 2 | 3:41.67 | 5:47.00 | 16642 | 42666 3 | 9:28.67 | 4:56.63 | 42667 | 64929 4 | 14:25.55 | 4:58.37 | 64930 | 87316 5 | 19:24.17 | 5:39.68 | 87317 | 112809 6 | 25:04.10 | 10:56.27 | 112810 | 162036 7 | 36:00.37 | 5:54.73 | 162037 | 188659 8 | 41:55.35 | 2:47.52 | 188660 | 201236 9 | 44:43.12 | 6:14.40 | 201237 | 229326 10 | 50:57.52 | 8:42.23 | 229327 | 268499
Track 1
Filename f:\Users\Guillermo\Desktop\EAC convertidos\01 Ne m'oubliez pas - Margreta Elkins - Oh, la belle campagne.wav
Pre-gap length 0:00:02.00
Peak level 16.4 % Extraction speed 1.5 X Track quality 100.0 % Test CRC 96DE7B6C Copy CRC 96DE7B6C Copy OK
Track 2
Filename f:\Users\Guillermo\Desktop\EAC convertidos\02 Ne m'oubliez pas - Margreta Elkins, Alexander Oliver - Heinach disait!.wav
Peak level 98.7 % Extraction speed 1.6 X Track quality 99.9 % Test CRC DC565657 Copy CRC DC565657 Copy OK
Track 3
Filename f:\Users\Guillermo\Desktop\EAC convertidos\03 Ne m'oubliez pas - Margreta Elkins, Christian du Plessis - Henriette, il en est d'autres.wav
Peak level 60.9 % Extraction speed 2.0 X Track quality 100.0 % Test CRC 2FF2D50F Copy CRC 2FF2D50F Copy OK
Track 4
Filename f:\Users\Guillermo\Desktop\EAC convertidos\04 Ne m'oubliez pas - Alexander Oliver - Ah! faudrait-il qu'elle appartient.wav
Peak level 60.0 % Extraction speed 2.1 X Track quality 100.0 % Test CRC 7039EB4C Copy CRC 7039EB4C Copy OK
Track 5
Filename f:\Users\Guillermo\Desktop\EAC convertidos\05 Ne m'oubliez pas - Margreta Elkins, Alexander Oliver - Adieu, ma paupière est lassée.wav
Peak level 40.1 % Extraction speed 2.3 X Track quality 100.0 % Test CRC BC1468E7 Copy CRC BC1468E7 Copy OK
Track 6
Filename f:\Users\Guillermo\Desktop\EAC convertidos\06 Imelda de'Lambertazzi - Margreta Elkins - Vincesti alfin...Amarti e nel martoro.wav
Peak level 79.0 % Extraction speed 2.8 X Track quality 100.0 % Test CRC 9FAF9EE6 Copy CRC 9FAF9EE6 Copy OK
Track 7
Filename f:\Users\Guillermo\Desktop\EAC convertidos\07 Dom Sébastien -Margreta Elkins - Que faire où cacher ma tristesse.wav
Peak level 54.8 % Extraction speed 2.5 X Track quality 99.9 % Test CRC D91E00C2 Copy CRC D91E00C2 Copy OK
Track 8
Filename f:\Users\Guillermo\Desktop\EAC convertidos\08 Gianni di Parigi - Margreta Elkins - Mira o bella il trovatore.wav
Peak level 26.8 % Extraction speed 2.5 X Track quality 100.0 % Test CRC 9ACD69AE Copy CRC 9ACD69AE Copy OK
Track 9
Filename f:\Users\Guillermo\Desktop\EAC convertidos\09 Roberto Devereux - Margreta Elkins - All'afflitto.wav
Peak level 45.1 % Extraction speed 3.1 X Track quality 100.0 % Test CRC EE93FAB6 Copy CRC EE93FAB6 Copy OK
Track 10
Filename f:\Users\Guillermo\Desktop\EAC convertidos\10 Il diluvio universale - Margreta Elkins - Non mi tradir speranza...Ah non tacermi in core.wav
Peak level 67.8 % Extraction speed 3.0 X Track quality 99.9 % Test CRC 636A6B3F Copy CRC 636A6B3F Copy OK
No errors occurred
End of status report
==== Log checksum 2959D7202FBE95118FFC3B28D92F38258328E76FE2EBED2425459F1DDB01D02A ====

Содержание индексной карты (.CUE)

REM DISCID 840DFC0AREM COMMENT "ExactAudioCopy v1.0b3"FILE "01 Ne m'oubliez pas - Margreta Elkins - Oh, la belle campagne.wav" WAVE TRACK 01 AUDIO INDEX 01 00:00:00FILE "02 Ne m'oubliez pas - Margreta Elkins, Alexander Oliver - Heinach disait!.wav" WAVE TRACK 02 AUDIO INDEX 01 00:00:00FILE "03 Ne m'oubliez pas - Margreta Elkins, Christian du Plessis - Henriette, il en est d'autres.wav" WAVE TRACK 03 AUDIO INDEX 01 00:00:00FILE "04 Ne m'oubliez pas - Alexander Oliver - Ah! faudrait-il qu'elle appartient.wav" WAVE TRACK 04 AUDIO INDEX 01 00:00:00FILE "05 Ne m'oubliez pas - Margreta Elkins, Alexander Oliver - Adieu, ma paupiиre est lassйe.wav" WAVE TRACK 05 AUDIO INDEX 01 00:00:00FILE "06 Imelda de'Lambertazzi - Margreta Elkins - Vincesti alfin...Amarti e nel martoro.wav" WAVE TRACK 06 AUDIO INDEX 01 00:00:00FILE "07 Dom Sйbastien -Margreta Elkins - Que faire oщ cacher ma tristesse.wav" WAVE TRACK 07 AUDIO INDEX 01 00:00:00FILE "08 Gianni di Parigi - Margreta Elkins - Mira o bella il trovatore.wav" WAVE TRACK 08 AUDIO INDEX 01 00:00:00FILE "09 Roberto Devereux - Margreta Elkins - All'afflitto.wav" WAVE TRACK 09 AUDIO INDEX 01 00:00:00FILE "10 Il diluvio universale - Margreta Elkins - Non mi tradir speranza...Ah non tacermi in core.wav" WAVE TRACK 10 AUDIO INDEX 01 00:00:00

Треклист

Gaetano Donizetti:Ne m'oubliez pas, opera (unfinished):
Act I:
1. ''Oh! la belle campagne"
2. "Heinach disait!"
3. Act II: "Henriette, il en est d'autres"
Act III:
4. "Ah! faudrati-il qu'elle appartient"
5. "Adieu, ma paupière est lassée"
6. Imelda de'Lambertazzi: "Vencesti alfin"
7. Dom Sébastien, roi du Portugal: "Que faire où cacher ma tristesse"
8. Gianni di Parigi: "Mira o bella il trovatore"
9. Roberto Devereux (Il Conte di Essex): "All'afflitto"
10. Il diluvio universale: "Non mi tradir speranza... Ah non tacermi in core"



Показать сообщения:    

Текущее время: 03-Дек 05:28

Часовой пояс: UTC + 3


Вы не можете начинать темы
Вы не можете отвечать на сообщения
Вы не можете редактировать свои сообщения
Вы не можете удалять свои сообщения
Вы не можете голосовать в опросах
Вы не можете прикреплять файлы к сообщениям
Вы не можете скачивать файлы