(Opera) Giuseppe Verdi - Otello (Othello) / Джузеппе Верди - Отелло [sung in French] (Georges Sebastian; Jose Luccioni, Regine Crespin, Rene Bianc, Louis Rialland), 1955 - live from l'Opera de Paris / 2006, FLAC (tracks+.cue), lossless


 

[Цитировать]

Giuseppe Verdi - Otello (Othello) / Джузеппе Верди - Отелло (Georges Sébastian; José Luccioni, Régine Crespin, René Bianc, Louis Rialland)
Жанр: Opera
Страна-производитель диска: Франция
Год издания диска: 2006
Издатель (лейбл): Malibran-Music
Дата записи: 1955
Аудиокодек: FLAC
Тип рипа: tracks+.cue
Битрейт аудио: lossless
Продолжительность: 144:39
Источник: релизер (Guillermo)
Исполнители:
Otello - José Luccioni,
Desdemona - Régine Crespin,
Iago - René Bianc,
Cassio - Louis Rialland,
Rodrigo - Camille Rouquetty,
Lodovico - Pierre Savignol,
Montano - André Philippe,
Emilia - Simone Couderc.
Conductor - Georges Sébastian,
Orchestra and Chorus of L'Opéra de Paris.
Recorded live at l'Opera de Paris, October 07, 1955.

Лог создания рипаЛог создания рипа CD 1

Exact Audio Copy V1.0 beta 3 from 29. August 2011
EAC extraction logfile from 9. October 2015, 22:34
Artista desconocido / Título desconocido
Used drive : HL-DT-STDVDRAM GH24NSC0 Adapter: 3 ID: 0
Read mode : SecureUtilize accurate stream : YesDefeat audio cache : YesMake use of C2 pointers : No
Read offset correction : 6Overread into Lead-In and Lead-Out : NoFill up missing offset samples with silence : YesDelete leading and trailing silent blocks : NoNull samples used in CRC calculations : YesUsed interface : Native Win32 interface for Win NT & 2000Gap handling : Appended to previous track
Used output format : User Defined EncoderSelected bitrate : 768 kBit/sQuality : HighAdd ID3 tag : NoCommand line compressor : C:\Program Files (x86)\Exact Audio Copy\FLAC\FLAC.EXEAdditional command line options : -8 -V -T "ARTIST=%artist%" -T "TITLE=%title%" -T "ALBUM=%albumtitle%" -T "DATE=%year%" -T "TRACKNUMBER=%tracknr%" -T "GENRE=%genre%" -T "PERFORMER=%albuminterpret%" -T "COMPOSER=%composer%" %haslyrics%--tag-from-file=LYRICS="%lyricsfile%"%haslyrics% -T "ALBUMARTIST=%albumartist%" -T "DISCNUMBER=%cdnumber%" -T "TOTALDISCS=%totalcds%" -T "TOTALTRACKS=%numtracks%" -T "COMMENT=%comment%" %source% -o %dest%
TOC of the extracted CD
Track | Start | Length | Start sector | End sector --------------------------------------------------------- 1 | 0:00.00 | 4:08.17 | 0 | 18616 2 | 4:08.17 | 2:14.58 | 18617 | 28724 3 | 6:23.00 | 2:19.32 | 28725 | 39181 4 | 8:42.32 | 2:37.22 | 39182 | 50978 5 | 11:19.54 | 6:20.72 | 50979 | 79550 6 | 17:40.51 | 2:54.12 | 79551 | 92612 7 | 20:34.63 | 13:21.20 | 92613 | 152707 8 | 33:56.08 | 2:43.13 | 152708 | 164945 9 | 36:39.21 | 5:42.71 | 164946 | 190666 10 | 42:22.17 | 1:11.07 | 190667 | 195998 11 | 43:33.24 | 5:36.38 | 195999 | 221236 12 | 49:09.62 | 1:34.46 | 221237 | 228332 13 | 50:44.33 | 4:04.52 | 228333 | 246684 14 | 54:49.10 | 5:35.40 | 246685 | 271849 15 | 60:24.50 | 2:55.69 | 271850 | 285043 16 | 63:20.44 | 7:19.24 | 285044 | 317992
Track 1
Filename f:\Users\Guillermo\Desktop\EAC convertidos\01 Pista01.wav
Pre-gap length 0:00:02.00
Peak level 97.7 % Extraction speed 1.3 X Track quality 99.9 % Test CRC D3132F1A Copy CRC D3132F1A Copy OK
Track 2
Filename f:\Users\Guillermo\Desktop\EAC convertidos\02 Pista02.wav
Peak level 97.7 % Extraction speed 1.1 X Track quality 99.8 % Test CRC CAA16B52 Copy CRC CAA16B52 Copy OK
Track 3
Filename f:\Users\Guillermo\Desktop\EAC convertidos\03 Pista03.wav
Peak level 83.1 % Extraction speed 1.5 X Track quality 100.0 % Test CRC 89BE4D49 Copy CRC 89BE4D49 Copy OK
Track 4
Filename f:\Users\Guillermo\Desktop\EAC convertidos\04 Pista04.wav
Peak level 88.8 % Extraction speed 1.6 X Track quality 100.0 % Test CRC A3AC193E Copy CRC A3AC193E Copy OK
Track 5
Filename f:\Users\Guillermo\Desktop\EAC convertidos\05 Pista05.wav
Peak level 82.3 % Extraction speed 2.1 X Track quality 100.0 % Test CRC 523C61E0 Copy CRC 523C61E0 Copy OK
Track 6
Filename f:\Users\Guillermo\Desktop\EAC convertidos\06 Pista06.wav
Peak level 97.7 % Extraction speed 1.9 X Track quality 100.0 % Test CRC F11F1F82 Copy CRC F11F1F82 Copy OK
Track 7
Filename f:\Users\Guillermo\Desktop\EAC convertidos\07 Pista07.wav
Peak level 97.7 % Extraction speed 2.7 X Track quality 100.0 % Test CRC 029DDB79 Copy CRC 029DDB79 Copy OK
Track 8
Filename f:\Users\Guillermo\Desktop\EAC convertidos\08 Pista08.wav
Pre-gap length 0:00:02.00
Peak level 76.4 % Extraction speed 1.8 X Track quality 99.8 % Test CRC 4FB4D1EC Copy CRC 4FB4D1EC Copy OK
Track 9
Filename f:\Users\Guillermo\Desktop\EAC convertidos\09 Pista09.wav
Peak level 97.7 % Extraction speed 2.8 X Track quality 100.0 % Test CRC 42C1667C Copy CRC 42C1667C Copy OK
Track 10
Filename f:\Users\Guillermo\Desktop\EAC convertidos\10 Pista10.wav
Peak level 55.2 % Extraction speed 1.8 X Track quality 100.0 % Test CRC C57CDF22 Copy CRC C57CDF22 Copy OK
Track 11
Filename f:\Users\Guillermo\Desktop\EAC convertidos\11 Pista11.wav
Peak level 95.4 % Extraction speed 2.6 X Track quality 99.9 % Test CRC 7B491D22 Copy CRC 7B491D22 Copy OK
Track 12
Filename f:\Users\Guillermo\Desktop\EAC convertidos\12 Pista12.wav
Peak level 62.7 % Extraction speed 2.2 X Track quality 100.0 % Test CRC C437AB7B Copy CRC C437AB7B Copy OK
Track 13
Filename f:\Users\Guillermo\Desktop\EAC convertidos\13 Pista13.wav
Peak level 94.7 % Extraction speed 2.9 X Track quality 100.0 % Test CRC C33A5A85 Copy CRC C33A5A85 Copy OK
Track 14
Filename f:\Users\Guillermo\Desktop\EAC convertidos\14 Pista14.wav
Peak level 97.7 % Extraction speed 2.8 X Track quality 99.9 % Test CRC 1DBFC22F Copy CRC 1DBFC22F Copy OK
Track 15
Filename f:\Users\Guillermo\Desktop\EAC convertidos\15 Pista15.wav
Peak level 61.2 % Extraction speed 2.3 X Track quality 99.8 % Test CRC 5437EBB5 Copy CRC 5437EBB5 Copy OK
Track 16
Filename f:\Users\Guillermo\Desktop\EAC convertidos\16 Pista16.wav
Peak level 97.7 % Extraction speed 3.5 X Track quality 100.0 % Test CRC 6313F353 Copy CRC 6313F353 Copy OK
No errors occurred
End of status report
==== Log checksum 57D8F2BDCCFE4233E73170729942AF4B6A223EF8AD2D1494061F11E2DF7B3772 ====

Лог создания рипа CD 2

Exact Audio Copy V1.0 beta 3 from 29. August 2011
EAC extraction logfile from 9. October 2015, 22:34
Artista desconocido / Título desconocido
Used drive : HL-DT-STDVDRAM GH24NSC0 Adapter: 3 ID: 0
Read mode : SecureUtilize accurate stream : YesDefeat audio cache : YesMake use of C2 pointers : No
Read offset correction : 6Overread into Lead-In and Lead-Out : NoFill up missing offset samples with silence : YesDelete leading and trailing silent blocks : NoNull samples used in CRC calculations : YesUsed interface : Native Win32 interface for Win NT & 2000Gap handling : Appended to previous track
Used output format : User Defined EncoderSelected bitrate : 768 kBit/sQuality : HighAdd ID3 tag : NoCommand line compressor : C:\Program Files (x86)\Exact Audio Copy\FLAC\FLAC.EXEAdditional command line options : -8 -V -T "ARTIST=%artist%" -T "TITLE=%title%" -T "ALBUM=%albumtitle%" -T "DATE=%year%" -T "TRACKNUMBER=%tracknr%" -T "GENRE=%genre%" -T "PERFORMER=%albuminterpret%" -T "COMPOSER=%composer%" %haslyrics%--tag-from-file=LYRICS="%lyricsfile%"%haslyrics% -T "ALBUMARTIST=%albumartist%" -T "DISCNUMBER=%cdnumber%" -T "TOTALDISCS=%totalcds%" -T "TOTALTRACKS=%numtracks%" -T "COMMENT=%comment%" %source% -o %dest%
TOC of the extracted CD
Track | Start | Length | Start sector | End sector --------------------------------------------------------- 1 | 0:00.00 | 4:08.17 | 0 | 18616 2 | 4:08.17 | 2:14.58 | 18617 | 28724 3 | 6:23.00 | 2:19.32 | 28725 | 39181 4 | 8:42.32 | 2:37.22 | 39182 | 50978 5 | 11:19.54 | 6:20.72 | 50979 | 79550 6 | 17:40.51 | 2:54.12 | 79551 | 92612 7 | 20:34.63 | 13:21.20 | 92613 | 152707 8 | 33:56.08 | 2:43.13 | 152708 | 164945 9 | 36:39.21 | 5:42.71 | 164946 | 190666 10 | 42:22.17 | 1:11.07 | 190667 | 195998 11 | 43:33.24 | 5:36.38 | 195999 | 221236 12 | 49:09.62 | 1:34.46 | 221237 | 228332 13 | 50:44.33 | 4:04.52 | 228333 | 246684 14 | 54:49.10 | 5:35.40 | 246685 | 271849 15 | 60:24.50 | 2:55.69 | 271850 | 285043 16 | 63:20.44 | 7:19.24 | 285044 | 317992
Track 1
Filename f:\Users\Guillermo\Desktop\EAC convertidos\01 Pista01.wav
Pre-gap length 0:00:02.00
Peak level 97.7 % Extraction speed 1.3 X Track quality 99.9 % Test CRC D3132F1A Copy CRC D3132F1A Copy OK
Track 2
Filename f:\Users\Guillermo\Desktop\EAC convertidos\02 Pista02.wav
Peak level 97.7 % Extraction speed 1.1 X Track quality 99.8 % Test CRC CAA16B52 Copy CRC CAA16B52 Copy OK
Track 3
Filename f:\Users\Guillermo\Desktop\EAC convertidos\03 Pista03.wav
Peak level 83.1 % Extraction speed 1.5 X Track quality 100.0 % Test CRC 89BE4D49 Copy CRC 89BE4D49 Copy OK
Track 4
Filename f:\Users\Guillermo\Desktop\EAC convertidos\04 Pista04.wav
Peak level 88.8 % Extraction speed 1.6 X Track quality 100.0 % Test CRC A3AC193E Copy CRC A3AC193E Copy OK
Track 5
Filename f:\Users\Guillermo\Desktop\EAC convertidos\05 Pista05.wav
Peak level 82.3 % Extraction speed 2.1 X Track quality 100.0 % Test CRC 523C61E0 Copy CRC 523C61E0 Copy OK
Track 6
Filename f:\Users\Guillermo\Desktop\EAC convertidos\06 Pista06.wav
Peak level 97.7 % Extraction speed 1.9 X Track quality 100.0 % Test CRC F11F1F82 Copy CRC F11F1F82 Copy OK
Track 7
Filename f:\Users\Guillermo\Desktop\EAC convertidos\07 Pista07.wav
Peak level 97.7 % Extraction speed 2.7 X Track quality 100.0 % Test CRC 029DDB79 Copy CRC 029DDB79 Copy OK
Track 8
Filename f:\Users\Guillermo\Desktop\EAC convertidos\08 Pista08.wav
Pre-gap length 0:00:02.00
Peak level 76.4 % Extraction speed 1.8 X Track quality 99.8 % Test CRC 4FB4D1EC Copy CRC 4FB4D1EC Copy OK
Track 9
Filename f:\Users\Guillermo\Desktop\EAC convertidos\09 Pista09.wav
Peak level 97.7 % Extraction speed 2.8 X Track quality 100.0 % Test CRC 42C1667C Copy CRC 42C1667C Copy OK
Track 10
Filename f:\Users\Guillermo\Desktop\EAC convertidos\10 Pista10.wav
Peak level 55.2 % Extraction speed 1.8 X Track quality 100.0 % Test CRC C57CDF22 Copy CRC C57CDF22 Copy OK
Track 11
Filename f:\Users\Guillermo\Desktop\EAC convertidos\11 Pista11.wav
Peak level 95.4 % Extraction speed 2.6 X Track quality 99.9 % Test CRC 7B491D22 Copy CRC 7B491D22 Copy OK
Track 12
Filename f:\Users\Guillermo\Desktop\EAC convertidos\12 Pista12.wav
Peak level 62.7 % Extraction speed 2.2 X Track quality 100.0 % Test CRC C437AB7B Copy CRC C437AB7B Copy OK
Track 13
Filename f:\Users\Guillermo\Desktop\EAC convertidos\13 Pista13.wav
Peak level 94.7 % Extraction speed 2.9 X Track quality 100.0 % Test CRC C33A5A85 Copy CRC C33A5A85 Copy OK
Track 14
Filename f:\Users\Guillermo\Desktop\EAC convertidos\14 Pista14.wav
Peak level 97.7 % Extraction speed 2.8 X Track quality 99.9 % Test CRC 1DBFC22F Copy CRC 1DBFC22F Copy OK
Track 15
Filename f:\Users\Guillermo\Desktop\EAC convertidos\15 Pista15.wav
Peak level 61.2 % Extraction speed 2.3 X Track quality 99.8 % Test CRC 5437EBB5 Copy CRC 5437EBB5 Copy OK
Track 16
Filename f:\Users\Guillermo\Desktop\EAC convertidos\16 Pista16.wav
Peak level 97.7 % Extraction speed 3.5 X Track quality 100.0 % Test CRC 6313F353 Copy CRC 6313F353 Copy OK
No errors occurred
End of status report
==== Log checksum 57D8F2BDCCFE4233E73170729942AF4B6A223EF8AD2D1494061F11E2DF7B3772 ====
------------------------------------------------------------
Exact Audio Copy V1.0 beta 3 from 29. August 2011
EAC extraction logfile from 10. October 2015, 8:28
Artista desconocido / Título desconocido
Used drive : HL-DT-STDVDRAM GH24NSC0 Adapter: 3 ID: 0
Read mode : SecureUtilize accurate stream : YesDefeat audio cache : YesMake use of C2 pointers : Yes
Read offset correction : 6Overread into Lead-In and Lead-Out : NoFill up missing offset samples with silence : YesDelete leading and trailing silent blocks : YesNull samples used in CRC calculations : YesUsed interface : Native Win32 interface for Win NT & 2000Gap handling : Appended to previous track
Used output format : User Defined EncoderSelected bitrate : 768 kBit/sQuality : HighAdd ID3 tag : NoCommand line compressor : C:\Program Files (x86)\Exact Audio Copy\FLAC\FLAC.EXEAdditional command line options : -8 -V -T "ARTIST=%artist%" -T "TITLE=%title%" -T "ALBUM=%albumtitle%" -T "DATE=%year%" -T "TRACKNUMBER=%tracknr%" -T "GENRE=%genre%" -T "PERFORMER=%albuminterpret%" -T "COMPOSER=%composer%" %haslyrics%--tag-from-file=LYRICS="%lyricsfile%"%haslyrics% -T "ALBUMARTIST=%albumartist%" -T "DISCNUMBER=%cdnumber%" -T "TOTALDISCS=%totalcds%" -T "TOTALTRACKS=%numtracks%" -T "COMMENT=%comment%" %source% -o %dest%
TOC of the extracted CD
Track | Start | Length | Start sector | End sector --------------------------------------------------------- 1 | 0:00.00 | 2:53.52 | 0 | 13026 2 | 2:53.52 | 10:02.38 | 13027 | 58214 3 | 12:56.15 | 4:29.59 | 58215 | 78448 4 | 17:25.74 | 4:57.69 | 78449 | 100792 5 | 22:23.68 | 2:01.28 | 100793 | 109895 6 | 24:25.21 | 5:43.15 | 109896 | 135635 7 | 30:08.36 | 8:11.08 | 135636 | 172468 8 | 38:19.44 | 4:22.42 | 172469 | 192160 9 | 42:42.11 | 8:21.51 | 192161 | 229786 10 | 51:03.62 | 5:53.14 | 229787 | 256275 11 | 56:57.01 | 9:28.54 | 256276 | 298929 12 | 66:25.55 | 7:31.03 | 298930 | 332757
Track 1
Filename f:\Users\Guillermo\Desktop\EAC convertidos\01 Pista01.wav
Pre-gap length 0:00:02.00
Peak level 97.7 % Extraction speed 1.4 X Track quality 100.0 % Test CRC 136E529A Copy CRC 136E529A Copy OK
Track 2
Filename f:\Users\Guillermo\Desktop\EAC convertidos\02 Pista02.wav
Peak level 97.7 % Extraction speed 2.0 X Track quality 100.0 % Test CRC BE9A100B Copy CRC BE9A100B Copy OK
Track 3
Filename f:\Users\Guillermo\Desktop\EAC convertidos\03 Pista03.wav
Peak level 97.7 % Extraction speed 2.1 X Track quality 100.0 % Test CRC CB8170DD Copy CRC CB8170DD Copy OK
Track 4
Filename f:\Users\Guillermo\Desktop\EAC convertidos\04 Pista04.wav
Peak level 60.6 % Extraction speed 2.3 X Track quality 100.0 % Test CRC 1EFD9E2F Copy CRC 1EFD9E2F Copy OK
Track 5
Filename f:\Users\Guillermo\Desktop\EAC convertidos\05 Pista05.wav
Peak level 50.1 % Extraction speed 1.9 X Track quality 100.0 % Test CRC 7DA1B752 Copy CRC 7DA1B752 Copy OK
Track 6
Filename f:\Users\Guillermo\Desktop\EAC convertidos\06 Pista06.wav
Peak level 97.7 % Extraction speed 2.2 X Track quality 99.9 % Test CRC E7E9D5CF Copy CRC E7E9D5CF Copy OK
Track 7
Filename f:\Users\Guillermo\Desktop\EAC convertidos\07 Pista07.wav
Peak level 97.7 % Extraction speed 2.9 X Track quality 100.0 % Test CRC CC351895 Copy CRC CC351895 Copy OK
Track 8
Filename f:\Users\Guillermo\Desktop\EAC convertidos\08 Pista08.wav
Peak level 82.1 % Extraction speed 2.4 X Track quality 99.9 % Test CRC F58BC549 Copy CRC F58BC549 Copy OK
Track 9
Filename f:\Users\Guillermo\Desktop\EAC convertidos\09 Pista09.wav
Peak level 97.7 % Extraction speed 3.2 X Track quality 100.0 % Test CRC 0D76101C Copy CRC 0D76101C Copy OK
Track 10
Filename f:\Users\Guillermo\Desktop\EAC convertidos\10 Pista10.wav
Peak level 97.7 % Extraction speed 3.2 X Track quality 100.0 % Test CRC 998CA4D7 Copy CRC 998CA4D7 Copy OK
Track 11
Filename f:\Users\Guillermo\Desktop\EAC convertidos\11 Pista11.wav
Peak level 97.7 % Extraction speed 3.6 X Track quality 100.0 % Test CRC F0E9F2F0 Copy CRC F0E9F2F0 Copy OK
Track 12
Filename f:\Users\Guillermo\Desktop\EAC convertidos\12 Pista12.wav
Peak level 97.7 % Extraction speed 3.7 X Track quality 100.0 % Test CRC 60EF75B7 Copy CRC 60EF75B7 Copy OK
No errors occurred
End of status report
==== Log checksum 2153AC508EF661B6ABEB1EB9816B5FE7402419BCDCA96CDFA7FA8B03C60EF057 ====
------------------------------------------------------------
Exact Audio Copy V1.0 beta 3 from 29. August 2011
EAC extraction logfile from 10. October 2015, 9:31
Artista desconocido / Título desconocido
Used drive : HL-DT-STDVDRAM GH24NSC0 Adapter: 3 ID: 0
Read mode : SecureUtilize accurate stream : YesDefeat audio cache : YesMake use of C2 pointers : Yes
Read offset correction : 6Overread into Lead-In and Lead-Out : NoFill up missing offset samples with silence : YesDelete leading and trailing silent blocks : YesNull samples used in CRC calculations : YesUsed interface : Native Win32 interface for Win NT & 2000Gap handling : Appended to previous track
Used output format : User Defined EncoderSelected bitrate : 768 kBit/sQuality : HighAdd ID3 tag : NoCommand line compressor : C:\Program Files (x86)\Exact Audio Copy\FLAC\FLAC.EXEAdditional command line options : -8 -V -T "ARTIST=%artist%" -T "TITLE=%title%" -T "ALBUM=%albumtitle%" -T "DATE=%year%" -T "TRACKNUMBER=%tracknr%" -T "GENRE=%genre%" -T "PERFORMER=%albuminterpret%" -T "COMPOSER=%composer%" %haslyrics%--tag-from-file=LYRICS="%lyricsfile%"%haslyrics% -T "ALBUMARTIST=%albumartist%" -T "DISCNUMBER=%cdnumber%" -T "TOTALDISCS=%totalcds%" -T "TOTALTRACKS=%numtracks%" -T "COMMENT=%comment%" %source% -o %dest%
TOC of the extracted CD
Track | Start | Length | Start sector | End sector --------------------------------------------------------- 1 | 0:00.00 | 2:53.52 | 0 | 13026 2 | 2:53.52 | 10:02.38 | 13027 | 58214 3 | 12:56.15 | 4:29.59 | 58215 | 78448 4 | 17:25.74 | 4:57.69 | 78449 | 100792 5 | 22:23.68 | 2:01.28 | 100793 | 109895 6 | 24:25.21 | 5:43.15 | 109896 | 135635 7 | 30:08.36 | 8:11.08 | 135636 | 172468 8 | 38:19.44 | 4:22.42 | 172469 | 192160 9 | 42:42.11 | 8:21.51 | 192161 | 229786 10 | 51:03.62 | 5:53.14 | 229787 | 256275 11 | 56:57.01 | 9:28.54 | 256276 | 298929 12 | 66:25.55 | 7:31.03 | 298930 | 332757
Track 1
Filename f:\Users\Guillermo\Desktop\EAC convertidos\01 Pista01.wav
Pre-gap length 0:00:02.00
Peak level 97.7 % Extraction speed 1.4 X Track quality 100.0 % Test CRC 136E529A Copy CRC 136E529A Copy OK
Track 2
Filename f:\Users\Guillermo\Desktop\EAC convertidos\02 Pista02.wav
Peak level 97.7 % Extraction speed 2.0 X Track quality 100.0 % Test CRC BE9A100B Copy CRC BE9A100B Copy OK
Track 3
Filename f:\Users\Guillermo\Desktop\EAC convertidos\03 Pista03.wav
Peak level 97.7 % Extraction speed 2.1 X Track quality 100.0 % Test CRC CB8170DD Copy CRC CB8170DD Copy OK
Track 4
Filename f:\Users\Guillermo\Desktop\EAC convertidos\04 Pista04.wav
Peak level 60.6 % Extraction speed 2.3 X Track quality 100.0 % Test CRC 1EFD9E2F Copy CRC 1EFD9E2F Copy OK
Track 5
Filename f:\Users\Guillermo\Desktop\EAC convertidos\05 Pista05.wav
Peak level 50.1 % Extraction speed 1.9 X Track quality 100.0 % Test CRC 7DA1B752 Copy CRC 7DA1B752 Copy OK
Track 6
Filename f:\Users\Guillermo\Desktop\EAC convertidos\06 Pista06.wav
Peak level 97.7 % Extraction speed 2.2 X Track quality 99.9 % Test CRC E7E9D5CF Copy CRC E7E9D5CF Copy OK
Track 7
Filename f:\Users\Guillermo\Desktop\EAC convertidos\07 Pista07.wav
Peak level 97.7 % Extraction speed 2.9 X Track quality 100.0 % Test CRC CC351895 Copy CRC CC351895 Copy OK
Track 8
Filename f:\Users\Guillermo\Desktop\EAC convertidos\08 Pista08.wav
Peak level 82.1 % Extraction speed 2.4 X Track quality 99.9 % Test CRC F58BC549 Copy CRC F58BC549 Copy OK
Track 9
Filename f:\Users\Guillermo\Desktop\EAC convertidos\09 Pista09.wav
Peak level 97.7 % Extraction speed 3.2 X Track quality 100.0 % Test CRC 0D76101C Copy CRC 0D76101C Copy OK
Track 10
Filename f:\Users\Guillermo\Desktop\EAC convertidos\10 Pista10.wav
Peak level 97.7 % Extraction speed 3.2 X Track quality 100.0 % Test CRC 998CA4D7 Copy CRC 998CA4D7 Copy OK
Track 11
Filename f:\Users\Guillermo\Desktop\EAC convertidos\11 Pista11.wav
Peak level 97.7 % Extraction speed 3.6 X Track quality 100.0 % Test CRC F0E9F2F0 Copy CRC F0E9F2F0 Copy OK
Track 12
Filename f:\Users\Guillermo\Desktop\EAC convertidos\12 Pista12.wav
Peak level 97.7 % Extraction speed 3.7 X Track quality 100.0 % Test CRC 60EF75B7 Copy CRC 60EF75B7 Copy OK
No errors occurred
End of status report
==== Log checksum 39E91918D07B3CC674D2D99BC47BF0E28BB74A13625F938D833AA7DB3FA8A6F9 ====

Содержание индексной карты (.CUE)Содержание индексной карты (.CUE) CD 1

REM DISCID C2108F10REM COMMENT "ExactAudioCopy v1.0b3"FILE "01 Pista01.wav" WAVE TRACK 01 AUDIO INDEX 01 00:00:00FILE "02 Pista02.wav" WAVE TRACK 02 AUDIO INDEX 01 00:00:00FILE "03 Pista03.wav" WAVE TRACK 03 AUDIO INDEX 01 00:00:00FILE "04 Pista04.wav" WAVE TRACK 04 AUDIO INDEX 01 00:00:00FILE "05 Pista05.wav" WAVE TRACK 05 AUDIO INDEX 01 00:00:00FILE "06 Pista06.wav" WAVE TRACK 06 AUDIO INDEX 01 00:00:00FILE "07 Pista07.wav" WAVE TRACK 07 AUDIO INDEX 01 00:00:00 TRACK 08 AUDIO INDEX 00 13:19:20FILE "08 Pista08.wav" WAVE INDEX 01 00:00:00FILE "09 Pista09.wav" WAVE TRACK 09 AUDIO INDEX 01 00:00:00FILE "10 Pista10.wav" WAVE TRACK 10 AUDIO INDEX 01 00:00:00FILE "11 Pista11.wav" WAVE TRACK 11 AUDIO INDEX 01 00:00:00FILE "12 Pista12.wav" WAVE TRACK 12 AUDIO INDEX 01 00:00:00FILE "13 Pista13.wav" WAVE TRACK 13 AUDIO INDEX 01 00:00:00FILE "14 Pista14.wav" WAVE TRACK 14 AUDIO INDEX 01 00:00:00FILE "15 Pista15.wav" WAVE TRACK 15 AUDIO INDEX 01 00:00:00FILE "16 Pista16.wav" WAVE TRACK 16 AUDIO INDEX 01 00:00:00

Содержание индексной карты (.CUE) CD 2

REM DISCID AB11540CREM COMMENT "ExactAudioCopy v1.0b3"FILE "01 Pista01.wav" WAVE TRACK 01 AUDIO INDEX 01 00:00:00FILE "02 Pista02.wav" WAVE TRACK 02 AUDIO INDEX 01 00:00:00FILE "03 Pista03.wav" WAVE TRACK 03 AUDIO INDEX 01 00:00:00FILE "04 Pista04.wav" WAVE TRACK 04 AUDIO INDEX 01 00:00:00FILE "05 Pista05.wav" WAVE TRACK 05 AUDIO INDEX 01 00:00:00FILE "06 Pista06.wav" WAVE TRACK 06 AUDIO INDEX 01 00:00:00FILE "07 Pista07.wav" WAVE TRACK 07 AUDIO INDEX 01 00:00:00FILE "08 Pista08.wav" WAVE TRACK 08 AUDIO INDEX 01 00:00:00FILE "09 Pista09.wav" WAVE TRACK 09 AUDIO INDEX 01 00:00:00FILE "10 Pista10.wav" WAVE TRACK 10 AUDIO INDEX 01 00:00:00FILE "11 Pista11.wav" WAVE TRACK 11 AUDIO INDEX 01 00:00:00FILE "12 Pista12.wav" WAVE TRACK 12 AUDIO INDEX 01 00:00:00

Треклист

Disc 1:
Acte Premier:
01 “Une voile, une voile ” - Iago, Rodrigue, Cassio, Montano, Chœur,
02 “Gloire aux braves, la mer recouvre les Sarrasins vaincus » -Othello, Chœur,
03 « Rodrigue» eh bien ! à quoi penses-tu ? – Iago, Rodrigue,
04 « O feu de joie » - Chœur,
05 « Rodrigue, buvons » - Iago, Cassio, Rodrigue, Montano, Chœur,
06 « A bas les armes ! » - Othello, Iago, Cassio, Montano, Chœurs,
07 « Dans cette nuit profonde s’éteint toute clameur» - Othello, Desdémone
Acte deuxième:
08 « Calme ta peine » - Cassio, Iago,
09 « Va-t’en, je vois où vont tes pas » - Credo de Iago,
10 « La voilà » - Iago,
11 « Ah ! ceci me déplait » - Iago, Othello, Chœur,
12 « Tu parais et ta splendeur » - Chœur, Desdémone, Othello, Iago,
13 « D’un malheureux, frappé par ta colère » -Desdémone, Othello, Emilia,Iago.
14 « Desdémone coupable » … « Tout m’abandonne » - Othello, Iago,
15 « La nuit dernière » - Iago,
16 « O crime monstrueux ! »... «Par le ciel ardent je jure...» - Othello, Iago.
Disc 2:
Acte troisième:
01 « La vedette du port” – Un héraut, Iago, Othello,
02 « Que Dieu te tienne en joie » - Desdémone, Othello,
03 « Dieu ! tu pouvais m’infliger » - Othello, Iago,
04 « Viens, la salle est déserte » - Iago, Cassio, Othello,
05 « Mais voici le signal donné par nos canons » - Iago, Cassio, Othello,
06 « Vivat ! ».. « Le Doge et le Sénat »- Lodovico, Desdémone, Othello, Emilia,
07 « A terre, là… mon corps meurtri tombe » - Desdémone, Rodrigue, Lodovico, Cassio, Emilia, Iago, Othello.
Acte quatrième:
08 « Est il plus calme... » – Emilia, Desdémone,
09 Chanson du saule – Desdémone,
10 Ave Maria – Desdémone,
11 « Qui vient ? » - Desdémone, Othello, Emilia, Lodovico, Iago, Montano,
12 « Que nul ne craigne en me voyant armé » - Othello, Lodovico, Montano.



Показать сообщения:    

Текущее время: 03-Дек 03:20

Часовой пояс: UTC + 3


Вы не можете начинать темы
Вы не можете отвечать на сообщения
Вы не можете редактировать свои сообщения
Вы не можете удалять свои сообщения
Вы не можете голосовать в опросах
Вы не можете прикреплять файлы к сообщениям
Вы не можете скачивать файлы