Майборода Олег. Деревенский художник / Ростовская культура (Олег Афанасьев) [2014, Док. Искусство, TVRip]


Статистика раздачи [Обновить пиров]
Размер:  189 MB   |    Зарегистрирован:  1 год 1 месяц   |    Скачан:  0 раз

Полного источника не было: Никогда

Личеров:  2  [  0 KB/s  ]   Подробная статистика пиров
 
   
 
 
 

[Цитировать]

Майборода Олег. Деревенский художник / Ростовская культура
Дата/Год выпуска: 2014
Страна: Россия
Жанр: Док. Искусство
Продолжительность: 00:20:16
Перевод: Не требуется
Русские субтитры: нет
Режиссер: Олег Афанасьев
Телеканал: Россия-24 - Дон-ТР
Описание: О поиске своего места в жизни и искусстве донским художником Олегом Майбородой. Донской художник Олег Майборода свой стиль определил как "этнический романтизм". Этот термин объединил обостренное восприятие местной, этнической пластики и общечеловеческий изобразительный опыт. Названия некоторых работ художника Олега Майбороды звучат интригующе: «Ночная рыба», «Лунный шар», «Розовая лодка», «Ворующие подсолнухи». А одна работа в имени содержит два вопроса: «О чем он говорит? И чья рука на плече?».
Доп. информация: Производство: ГТРК "Дон-ТР".
Качество: TVRip
Формат: AVI
Видео: Video: H264 700x544 25.00fps 1098Kbps
Аудио: Аудио: MPEG Audio Layer 3 48000Hz stereo 192Kbps

MediaInfo

GeneralComplete name : F:\Ростовская культура. Майборода Олег. Деревенский художник (2014).aviFormat : AVIFormat/Info : Audio Video InterleaveFile size : 189 MiBDuration : 20mn 16sOverall bit rate : 1 300 KbpsWriting library : VirtualDub build 28346/release
VideoID : 0Format : AVCFormat/Info : Advanced Video CodecFormat profile : High@L3.1Format settings, CABAC : YesFormat settings, ReFrames : 8 framesCodec ID : H264Duration : 20mn 16sBit rate : 1 100 KbpsWidth : 700 pixelsHeight : 544 pixelsDisplay aspect ratio : 1.287Frame rate : 25.000 fpsColor space : YUVChroma subsampling : 4:2:0Bit depth : 8 bitsScan type : ProgressiveBits/(Pixel*Frame) : 0.116Stream size : 159 MiB (84%)Writing library : x264 core 130 r2274bm c832fe9Encoding settings : cabac=1 / ref=8 / deblock=1:-1:-1 / analyse=0x3:0x133 / me=umh / subme=9 / psy=1 / psy_rd=1.00:0.15 / mixed_ref=1 /me_range=16 / chroma_me=1 / trellis=2 / 8x8dct=1 / cqm=0 / deadzone=21,11 / fast_pskip=1 / chroma_qp_offset=-3 / threads=6 / lookahead_threads=1 /sliced_threads=0 / nr=0 / decimate=1 / interlaced=0 / bluray_compat=0 / constrained_intra=0 / bframes=3 / b_pyramid=2 / b_adapt=2 / b_bias=0 / direct=3 /weightb=1 / open_gop=0 / weightp=2 / keyint=250 / keyint_min=25 / scenecut=40 / intra_refresh=0 / rc_lookahead=60 / rc=2pass / mbtree=1 / bitrate=1100 /ratetol=1.0 / qcomp=0.60 / qpmin=0 / qpmax=69 / qpstep=4 / cplxblur=20.0 / qblur=0.5 / ip_ratio=1.40 / aq=1:1.00
AudioID : 1Format : MPEG AudioFormat version : Version 1Format profile : Layer 3Mode : Joint stereoCodec ID : 55Codec ID/Hint : MP3Duration : 20mn 16sBit rate mode : ConstantBit rate : 192 KbpsChannel(s) : 2 channelsSampling rate : 48.0 KHzStream size : 27.8 MiB (15%)Alignment : Split accross interleavesInterleave, duration : 40 ms (1.00 video frame)Interleave, preload duration : 500 ms

Скриншоты

[teatrix.ru].t9556.torrent 
Торрент: Зарегистрирован [ 2015-10-20 01:55 ] · BC48BF4C07D5F239CC7C27C19ACD288B7FE7B7C2

Скачать .torrent

Скачать

15 KB

Статус: проверено
Скачан: 0 раз
Размер: 189 MB
terms.php



Быстрый ответ

Имя:

      
Для отправки сообщений необходимо включить JavaScript
Показать сообщения:    

Текущее время: 11-Дек 03:21

Часовой пояс: UTC + 3


Вы можете начинать темы
Вы можете отвечать на сообщения
Вы не можете редактировать свои сообщения
Вы не можете удалять свои сообщения
Вы не можете голосовать в опросах
Вы не можете прикреплять файлы к сообщениям
Вы можете скачивать файлы