(Classical/Piano) Chopin: Ballades Op. 23, 38, 47, 52. Fantaisie Op. 49 / Шопен - Баллады (Piotr Paleczny / Пётр Палечны) - 1995, FLAC (tracks+.cue) lossless


 

[Цитировать]

F. Chopin: Ballades Op. 23, 38, 47, 52. Fantaisie Op. 49 (Piotr Paleczny / Пётр Палечны)
Жанр: Classical/Piano
Страна-производитель диска: Польша
Год издания диска: 1995
Издатель (лейбл): BeArTon
Номер по каталогу: CDB001
Дата записи: Aug, 1995
Аудиокодек: FLAC
Тип рипа: tracks+.cue
Битрейт аудио: lossless
Продолжительность: 49:28
Источник: собственный рип
Наличие сканов в содержимом раздачи: да
Треклист:
01. Ballade in G minor Op. 23
02. Ballade in F major Op. 38
03. Ballade in A flat major Op. 47
04. Ballade in F minor Op. 52
05. Fantaisie in F minor Op. 49
Исполнители:
Piotr Paleczny / Пётр Палечны

Лог создания рипа

Exact Audio Copy V1.0 beta 3 from 29. August 2011
EAC extraction logfile from 18. October 2015, 23:03
Piotr Paleczny / Chopin - Ballades, Fantasie
Used drive : ASUS DRW-2014L1T Adapter: 2 ID: 10
Read mode : SecureUtilize accurate stream : YesDefeat audio cache : YesMake use of C2 pointers : No
Read offset correction : 6Overread into Lead-In and Lead-Out : NoFill up missing offset samples with silence : YesDelete leading and trailing silent blocks : NoNull samples used in CRC calculations : YesUsed interface : Native Win32 interface for Win NT & 2000Gap handling : Appended to previous track
Used output format : User Defined EncoderSelected bitrate : 896 kBit/sQuality : HighAdd ID3 tag : NoCommand line compressor : C:\Program Files\Exact Audio Copy\Flac\flac.exeAdditional command line options : -8 -V -T "ARTIST=%artist%" -T "TITLE=%title%" -T "ALBUM=%albumtitle%" -T "DATE=%year%" -T "TRACKNUMBER=%tracknr2%" -T "GENRE=%genre%" -T "DISCNUMBER=%cdnumber%" -T "COMPOSER=%composer%" -T "COMMENT=EAC FLAC -8" %source%
TOC of the extracted CD
Track | Start | Length | Start sector | End sector --------------------------------------------------------- 1 | 0:00.00 | 9:20.60 | 0 | 42059 2 | 9:20.60 | 7:37.12 | 42060 | 76346 3 | 16:57.72 | 7:52.23 | 76347 | 111769 4 | 24:50.20 | 11:40.22 | 111770 | 164291 5 | 36:30.42 | 12:59.73 | 164292 | 222789
Track 1
Filename D:\DT\Piotr Paleczny - Chopin - Ballades, Fantasie\01. Chopin - Ballade in G minor Op. 23.wav
Pre-gap length 0:00:02.00
Peak level 88.9 % Extraction speed 5.7 X Track quality 100.0 % Test CRC B5B6CD6C Copy CRC B5B6CD6C Cannot be verified as accurate (confidence 1) [3CC24FFF], AccurateRip returned [92E9F50E] (AR v2) Copy OK
Track 2
Filename D:\DT\Piotr Paleczny - Chopin - Ballades, Fantasie\02. Chopin - Ballade in F major Op. 38.wav
Pre-gap length 0:00:03.10
Peak level 78.3 % Extraction speed 5.2 X Track quality 99.9 % Test CRC 3BED0BA6 Copy CRC 3BED0BA6 Cannot be verified as accurate (confidence 1) [334F2B6B], AccurateRip returned [2026A6D3] (AR v2) Copy OK
Track 3
Filename D:\DT\Piotr Paleczny - Chopin - Ballades, Fantasie\03. Chopin - Ballade in A flat major Op. 47.wav
Pre-gap length 0:00:02.86
Peak level 93.0 % Extraction speed 6.3 X Track quality 100.0 % Test CRC BB20264E Copy CRC BB20264E Cannot be verified as accurate (confidence 1) [BCD848FE], AccurateRip returned [571536E7] (AR v2) Copy OK
Track 4
Filename D:\DT\Piotr Paleczny - Chopin - Ballades, Fantasie\04. Chopin - Ballade in F minor Op. 52.wav
Pre-gap length 0:00:02.00
Peak level 85.9 % Extraction speed 7.2 X Track quality 100.0 % Test CRC 23208FD1 Copy CRC 23208FD1 Cannot be verified as accurate (confidence 1) [FBCB07AB], AccurateRip returned [FA824427] (AR v2) Copy OK
Track 5
Filename D:\DT\Piotr Paleczny - Chopin - Ballades, Fantasie\05. Chopin - Fantaisie in F minor Op. 49.wav
Pre-gap length 0:00:02.93
Peak level 87.0 % Extraction speed 8.0 X Track quality 100.0 % Test CRC 87CFCC5F Copy CRC 87CFCC5F Cannot be verified as accurate (confidence 1) [D62235D8], AccurateRip returned [4E80E9D4] (AR v2) Copy OK
No tracks could be verified as accurateYou may have a different pressing from the one(s) in the database
No errors occurred
End of status report
==== Log checksum D831D3A3090B8270A1C4690C46ACE1A9A7F183C406DD002503647928CE81EFF6 ====

Содержание индексной карты (.CUE)

REM GENRE ClassicalREM DATE 1995REM DISCID 380B9A05REM COMMENT "ExactAudioCopy v1.0b3"PERFORMER "Piotr Paleczny"TITLE "Chopin - Ballades, Fantasie"FILE "01. Chopin - Ballade in G minor Op. 23.flac" WAVE TRACK 01 AUDIO TITLE "Ballade in G minor Op. 23" PERFORMER "Piotr Paleczny" INDEX 01 00:00:00 TRACK 02 AUDIO TITLE "Ballade in F major Op. 38" PERFORMER "Piotr Paleczny" INDEX 00 09:17:52FILE "02. Chopin - Ballade in F major Op. 38.flac" WAVE INDEX 01 00:00:00 TRACK 03 AUDIO TITLE "Ballade in A flat major Op. 47" PERFORMER "Piotr Paleczny" INDEX 00 07:34:22FILE "03. Chopin - Ballade in A flat major Op. 47.flac" WAVE INDEX 01 00:00:00 TRACK 04 AUDIO TITLE "Ballade in F minor Op. 52" PERFORMER "Piotr Paleczny" INDEX 00 07:50:23FILE "04. Chopin - Ballade in F minor Op. 52.flac" WAVE INDEX 01 00:00:00 TRACK 05 AUDIO TITLE "Fantaisie in F minor Op. 49" PERFORMER "Piotr Paleczny" INDEX 00 11:37:27FILE "05. Chopin - Fantaisie in F minor Op. 49.flac" WAVE INDEX 01 00:00:00



Показать сообщения:    

Текущее время: 08-Дек 07:06

Часовой пояс: UTC + 3


Вы не можете начинать темы
Вы не можете отвечать на сообщения
Вы не можете редактировать свои сообщения
Вы не можете удалять свои сообщения
Вы не можете голосовать в опросах
Вы не можете прикреплять файлы к сообщениям
Вы не можете скачивать файлы