(Opera) Camille Saint-Saens - Samson et Dalila / Камиль Сен-Санс - Самсон и Далила (Colin Davis; Jose Cura, Olga Borodina/Ольга Бородина, Jean-Philippe Lafont, Egil Silins, Robert Lloyd), 1998 - Studio recording / FLAC (image+.cue), lossless


 

[Цитировать]

Camille Saint-Saëns - Samson et Dalila / Камиль Сен-Санс - Самсон и Далила (Colin Davis; José Cura, Olga Borodina, Jean-Philippe Lafont, Egil Silins, Robert Lloyd)
Жанр: Opera
Страна-производитель диска: Франция
Год издания диска: 1998
Издатель (лейбл): Erato
Дата записи: 1998
Аудиокодек: FLAC
Тип рипа: image+.cue
Битрейт аудио: lossless
Продолжительность: 123:58
Источник: релизер (Canarias es Musica)
Исполнители:
Samson - José Cura,
Dalila - Olga Borodina
Le Grand Prêtre de Dagon - Jean-Philippe Lafont,
Abimélech - Egil Silins,
Le Vieillard Hébreu - Robert Lloyd,
Le messager philistin - Rémy Garin,
Premier philistin - Gilles Ragon,
Deuxième philistin - Olivier Lallouette.
Conductor - Colin Davis,
London Symphony Orchestra and Chorus.
Recorded at Walthamstow Town Hall, London, England, July 21, 1998 - July 27, 1998.

Лог создания рипаЛог создания рипа CD 1

X Lossless Decoder version 20141129a (148.2)
XLD extraction logfile from 2015-10-19 11:37:20 +0100
Colin Davis / Samson et Dalila, Disc 1
Used drive : MATSHITA DVD-R UJ-8A8 (revision HB14)Media type : Pressed CD
Ripper mode : XLD Secure RipperDisable audio cache : OK for the drive with a cache less than 1375KiBMake use of C2 pointers : NORead offset correction : 102Max retry count : 20Gap status : Analyzed, Appended
TOC of the extracted CD Track | Start | Length | Start sector | End sector --------------------------------------------------------- 1 | 00:00:00 | 05:21:65 | 0 | 24139 2 | 05:21:65 | 03:53:12 | 24140 | 41626 3 | 09:15:02 | 02:41:63 | 41627 | 53764 4 | 11:56:65 | 03:19:30 | 53765 | 68719 5 | 15:16:20 | 02:33:25 | 68720 | 80219 6 | 17:49:45 | 03:01:50 | 80220 | 93844 7 | 20:51:20 | 01:10:55 | 93845 | 99149 8 | 22:02:00 | 02:49:62 | 99150 | 111886 9 | 24:51:62 | 05:23:63 | 111887 | 136174 10 | 30:15:50 | 02:28:72 | 136175 | 147346 11 | 32:44:47 | 03:16:63 | 147347 | 162109 12 | 36:01:35 | 02:27:07 | 162110 | 173141 13 | 38:28:42 | 06:19:33 | 173142 | 201599
List of alternate offset correction values # | Absolute | Relative | Confidence ------------------------------------------ 1 | -567 | -669 | 14
AccurateRip Summary (DiscID: 00154440-00d09bcd-a50a800d) Track 01 : OK (v1+v2, confidence 14/28) Track 02 : OK (v1+v2, confidence 14/28) Track 03 : OK (v1+v2, confidence 14/28) Track 04 : OK (v1+v2, confidence 14/28) Track 05 : OK (v1+v2, confidence 14/28) Track 06 : OK (v1+v2, confidence 14/28) Track 07 : OK (v1+v2, confidence 14/28) Track 08 : OK (v1+v2, confidence 14/28) Track 09 : OK (v1+v2, confidence 14/28) Track 10 : OK (v1+v2, confidence 14/28) Track 11 : OK (v1+v2, confidence 14/28) Track 12 : OK (v1+v2, confidence 14/28) Track 13 : OK (v1+v2, confidence 14/28) ->All tracks accurately ripped.
All Tracks Filename : /Users/Juan/Downloads/CamSSaenSametDalCDav/Samson et Dalila, Disc 1.flac CRC32 hash : F8F84B91 CRC32 hash (skip zero) : 9E000574 Statistics Read error : 0 Jitter error (maybe fixed) : 0 Retry sector count : 0 Damaged sector count : 0
Track 01 Pre-gap length : 00:02:00
CRC32 hash : 4ACCF350 CRC32 hash (skip zero) : 4F579B3C AccurateRip v1 signature : 1BEF1AE7 AccurateRip v2 signature : 50D0D9D0 ->Accurately ripped (v1+v2, confidence 6+8/28) Statistics Read error : 0 Jitter error (maybe fixed) : 0 Retry sector count : 0 Damaged sector count : 0
Track 02
CRC32 hash : 8500DEE0 CRC32 hash (skip zero) : 9A3C6C79 AccurateRip v1 signature : 071580D6 AccurateRip v2 signature : 45799B0A ->Accurately ripped (v1+v2, confidence 6+8/28) Statistics Read error : 0 Jitter error (maybe fixed) : 0 Retry sector count : 0 Damaged sector count : 0
Track 03
CRC32 hash : 5D7BEC31 CRC32 hash (skip zero) : 94005E20 AccurateRip v1 signature : A4EFBA48 AccurateRip v2 signature : F04E48AB ->Accurately ripped (v1+v2, confidence 6+8/28) Statistics Read error : 0 Jitter error (maybe fixed) : 0 Retry sector count : 0 Damaged sector count : 0
Track 04
CRC32 hash : 63884250 CRC32 hash (skip zero) : C6B29DD9 AccurateRip v1 signature : 45E3D6CF AccurateRip v2 signature : F6C14125 ->Accurately ripped (v1+v2, confidence 6+8/28) Statistics Read error : 0 Jitter error (maybe fixed) : 0 Retry sector count : 0 Damaged sector count : 0
Track 05
CRC32 hash : 31CD024D CRC32 hash (skip zero) : 1162738C AccurateRip v1 signature : 5C0592E2 AccurateRip v2 signature : 89A640E3 ->Accurately ripped (v1+v2, confidence 6+8/28) Statistics Read error : 0 Jitter error (maybe fixed) : 0 Retry sector count : 0 Damaged sector count : 0
Track 06
CRC32 hash : F3A170D3 CRC32 hash (skip zero) : 995C7712 AccurateRip v1 signature : B04371CA AccurateRip v2 signature : 61706CF5 ->Accurately ripped (v1+v2, confidence 6+8/28) Statistics Read error : 0 Jitter error (maybe fixed) : 0 Retry sector count : 0 Damaged sector count : 0
Track 07
CRC32 hash : A43E4D41 CRC32 hash (skip zero) : E16A15EB AccurateRip v1 signature : C47D5952 AccurateRip v2 signature : DEF28190 ->Accurately ripped (v1+v2, confidence 6+8/28) Statistics Read error : 0 Jitter error (maybe fixed) : 0 Retry sector count : 0 Damaged sector count : 0
Track 08
CRC32 hash : 3AD139BA CRC32 hash (skip zero) : F2CF9251 AccurateRip v1 signature : 16EE188E AccurateRip v2 signature : 4F957C17 ->Accurately ripped (v1+v2, confidence 6+8/28) Statistics Read error : 0 Jitter error (maybe fixed) : 0 Retry sector count : 0 Damaged sector count : 0
Track 09
CRC32 hash : C2B47F6F CRC32 hash (skip zero) : AB8460B5 AccurateRip v1 signature : C095CD1B AccurateRip v2 signature : 5B83ADEF ->Accurately ripped (v1+v2, confidence 6+8/28) Statistics Read error : 0 Jitter error (maybe fixed) : 0 Retry sector count : 0 Damaged sector count : 0
Track 10
CRC32 hash : 16264BCC CRC32 hash (skip zero) : 7136F622 AccurateRip v1 signature : B425CF77 AccurateRip v2 signature : AE90CC03 ->Accurately ripped (v1+v2, confidence 6+8/28) Statistics Read error : 0 Jitter error (maybe fixed) : 0 Retry sector count : 0 Damaged sector count : 0
Track 11
CRC32 hash : 4C8E58B9 CRC32 hash (skip zero) : 9D4A0A93 AccurateRip v1 signature : 3F58374D AccurateRip v2 signature : 0F103747 ->Accurately ripped (v1+v2, confidence 6+8/28) Statistics Read error : 0 Jitter error (maybe fixed) : 0 Retry sector count : 0 Damaged sector count : 0
Track 12
CRC32 hash : 94EB6B59 CRC32 hash (skip zero) : FD7107D0 AccurateRip v1 signature : 13EE7C57 AccurateRip v2 signature : BB5EF2D1 ->Accurately ripped (v1+v2, confidence 6+8/28) Statistics Read error : 0 Jitter error (maybe fixed) : 0 Retry sector count : 0 Damaged sector count : 0
Track 13
CRC32 hash : 894491B4 CRC32 hash (skip zero) : 4E49AC85 AccurateRip v1 signature : A5E886F2 AccurateRip v2 signature : A83B5BE2 ->Accurately ripped (v1+v2, confidence 6+8/28) Statistics Read error : 0 Jitter error (maybe fixed) : 0 Retry sector count : 0 Damaged sector count : 0
No errors occurred
End of status report

Лог создания рипа CD 2

X Lossless Decoder version 20141129a (148.2)
XLD extraction logfile from 2015-10-19 11:45:29 +0100
Colin Davis / Samson et Dalila, Disc 2
Used drive : MATSHITA DVD-R UJ-8A8 (revision HB14)Media type : Pressed CD
Ripper mode : XLD Secure RipperDisable audio cache : OK for the drive with a cache less than 1375KiBMake use of C2 pointers : NORead offset correction : 102Max retry count : 20Gap status : Analyzed, Appended
TOC of the extracted CD Track | Start | Length | Start sector | End sector --------------------------------------------------------- 1 | 00:00:00 | 02:17:52 | 0 | 10326 2 | 02:17:52 | 04:53:50 | 10327 | 32351 3 | 07:11:27 | 04:51:60 | 32352 | 54236 4 | 12:03:12 | 03:51:23 | 54237 | 71584 5 | 15:54:35 | 01:59:40 | 71585 | 80549 6 | 17:54:00 | 03:06:52 | 80550 | 94551 7 | 21:00:52 | 04:44:05 | 94552 | 115856 8 | 25:44:57 | 04:56:18 | 115857 | 138074 9 | 30:41:00 | 06:01:10 | 138075 | 165159 10 | 36:42:10 | 06:12:32 | 165160 | 193091 11 | 42:54:42 | 11:00:60 | 193092 | 242651 12 | 53:55:27 | 03:36:30 | 242652 | 258881 13 | 57:31:57 | 06:31:25 | 258882 | 288231 14 | 64:03:07 | 02:13:15 | 288232 | 298221 15 | 66:16:22 | 02:51:43 | 298222 | 311089 16 | 69:07:65 | 01:56:00 | 311090 | 319789 17 | 71:03:65 | 04:00:45 | 319790 | 337834 18 | 75:04:35 | 03:58:65 | 337835 | 355749
List of alternate offset correction values # | Absolute | Relative | Confidence ------------------------------------------ 1 | -567 | -669 | 14
AccurateRip Summary (DiscID: 00336530-02bb33bd-10128712) Track 01 : OK (v1+v2, confidence 13/27) Track 02 : OK (v1+v2, confidence 13/27) Track 03 : OK (v1+v2, confidence 13/27) Track 04 : OK (v1+v2, confidence 13/27) Track 05 : OK (v1+v2, confidence 13/27) Track 06 : OK (v1+v2, confidence 13/27) Track 07 : OK (v1+v2, confidence 13/27) Track 08 : OK (v1+v2, confidence 13/27) Track 09 : OK (v1+v2, confidence 13/27) Track 10 : OK (v1+v2, confidence 13/27) Track 11 : OK (v1+v2, confidence 13/27) Track 12 : OK (v1+v2, confidence 13/27) Track 13 : OK (v1+v2, confidence 13/27) Track 14 : OK (v1+v2, confidence 13/27) Track 15 : OK (v1+v2, confidence 13/27) Track 16 : OK (v1+v2, confidence 13/27) Track 17 : OK (v1+v2, confidence 13/27) Track 18 : OK (v1+v2, confidence 13/27) ->All tracks accurately ripped.
All Tracks Filename : /Users/Juan/Downloads/CamSSaenSametDalCDav/Samson et Dalila, Disc 2.flac CRC32 hash : 525E3DEE CRC32 hash (skip zero) : 429314F3 Statistics Read error : 0 Jitter error (maybe fixed) : 0 Retry sector count : 0 Damaged sector count : 0
Track 01 Pre-gap length : 00:02:00
CRC32 hash : BA09AAB9 CRC32 hash (skip zero) : 149FEDCA AccurateRip v1 signature : 7DBA5165 AccurateRip v2 signature : B07853BD ->Accurately ripped (v1+v2, confidence 6+7/27) Statistics Read error : 0 Jitter error (maybe fixed) : 0 Retry sector count : 0 Damaged sector count : 0
Track 02
CRC32 hash : 0D6C77BA CRC32 hash (skip zero) : 9AEC3DF1 AccurateRip v1 signature : 4D9706A7 AccurateRip v2 signature : 41E31276 ->Accurately ripped (v1+v2, confidence 6+7/27) Statistics Read error : 0 Jitter error (maybe fixed) : 0 Retry sector count : 0 Damaged sector count : 0
Track 03
CRC32 hash : 3FC3495C CRC32 hash (skip zero) : E38AAB38 AccurateRip v1 signature : F4F39DDC AccurateRip v2 signature : C67228FF ->Accurately ripped (v1+v2, confidence 6+7/27) Statistics Read error : 0 Jitter error (maybe fixed) : 0 Retry sector count : 0 Damaged sector count : 0
Track 04
CRC32 hash : 380B88D3 CRC32 hash (skip zero) : BCF0BD9F AccurateRip v1 signature : 90B275CB AccurateRip v2 signature : B4D92E12 ->Accurately ripped (v1+v2, confidence 6+7/27) Statistics Read error : 0 Jitter error (maybe fixed) : 0 Retry sector count : 0 Damaged sector count : 0
Track 05
CRC32 hash : B547FD71 CRC32 hash (skip zero) : F7C65FE9 AccurateRip v1 signature : 26273986 AccurateRip v2 signature : 718499C0 ->Accurately ripped (v1+v2, confidence 6+7/27) Statistics Read error : 0 Jitter error (maybe fixed) : 0 Retry sector count : 0 Damaged sector count : 0
Track 06
CRC32 hash : 34E53F81 CRC32 hash (skip zero) : D73132A2 AccurateRip v1 signature : 1A17C8CB AccurateRip v2 signature : B93B06A1 ->Accurately ripped (v1+v2, confidence 6+7/27) Statistics Read error : 0 Jitter error (maybe fixed) : 0 Retry sector count : 0 Damaged sector count : 0
Track 07
CRC32 hash : 20B1C9AE CRC32 hash (skip zero) : 78DF6C8D AccurateRip v1 signature : C3522AA2 AccurateRip v2 signature : D7B84996 ->Accurately ripped (v1+v2, confidence 6+7/27) Statistics Read error : 0 Jitter error (maybe fixed) : 0 Retry sector count : 0 Damaged sector count : 0
Track 08
CRC32 hash : D58AE968 CRC32 hash (skip zero) : 7CF14A87 AccurateRip v1 signature : EE2F9CD7 AccurateRip v2 signature : CF2B64E3 ->Accurately ripped (v1+v2, confidence 6+7/27) Statistics Read error : 0 Jitter error (maybe fixed) : 0 Retry sector count : 0 Damaged sector count : 0
Track 09
CRC32 hash : 1055BD50 CRC32 hash (skip zero) : 5E9E5DD8 AccurateRip v1 signature : 7A9A68A9 AccurateRip v2 signature : 335B0C24 ->Accurately ripped (v1+v2, confidence 6+7/27) Statistics Read error : 0 Jitter error (maybe fixed) : 0 Retry sector count : 0 Damaged sector count : 0
Track 10
CRC32 hash : 2088F859 CRC32 hash (skip zero) : 52092EC4 AccurateRip v1 signature : 76E34C25 AccurateRip v2 signature : 2B6849A4 ->Accurately ripped (v1+v2, confidence 6+7/27) Statistics Read error : 0 Jitter error (maybe fixed) : 0 Retry sector count : 0 Damaged sector count : 0
Track 11 Pre-gap length : 00:02:55
CRC32 hash : BCD2F370 CRC32 hash (skip zero) : 306FB640 AccurateRip v1 signature : 3ED14AAA AccurateRip v2 signature : CF816CB6 ->Accurately ripped (v1+v2, confidence 6+7/27) Statistics Read error : 0 Jitter error (maybe fixed) : 0 Retry sector count : 0 Damaged sector count : 0
Track 12
CRC32 hash : CF478F99 CRC32 hash (skip zero) : 7AD818B6 AccurateRip v1 signature : F5F60514 AccurateRip v2 signature : DE93C0C3 ->Accurately ripped (v1+v2, confidence 6+7/27) Statistics Read error : 0 Jitter error (maybe fixed) : 0 Retry sector count : 0 Damaged sector count : 0
Track 13
CRC32 hash : E39AB42B CRC32 hash (skip zero) : 7FE72C59 AccurateRip v1 signature : C7D95130 AccurateRip v2 signature : D929F501 ->Accurately ripped (v1+v2, confidence 6+7/27) Statistics Read error : 0 Jitter error (maybe fixed) : 0 Retry sector count : 0 Damaged sector count : 0
Track 14
CRC32 hash : EF593EEB CRC32 hash (skip zero) : E0FFC004 AccurateRip v1 signature : 491F7034 AccurateRip v2 signature : EB781D28 ->Accurately ripped (v1+v2, confidence 6+7/27) Statistics Read error : 0 Jitter error (maybe fixed) : 0 Retry sector count : 0 Damaged sector count : 0
Track 15
CRC32 hash : 8DC95036 CRC32 hash (skip zero) : 8FF38F37 AccurateRip v1 signature : E2ABC8CC AccurateRip v2 signature : DFC6B370 ->Accurately ripped (v1+v2, confidence 6+7/27) Statistics Read error : 0 Jitter error (maybe fixed) : 0 Retry sector count : 0 Damaged sector count : 0
Track 16
CRC32 hash : 3207ECFA CRC32 hash (skip zero) : 388BA078 AccurateRip v1 signature : 64AB8AB5 AccurateRip v2 signature : F7FFBDE7 ->Accurately ripped (v1+v2, confidence 6+7/27) Statistics Read error : 0 Jitter error (maybe fixed) : 0 Retry sector count : 0 Damaged sector count : 0
Track 17
CRC32 hash : B9809D7A CRC32 hash (skip zero) : A019EBF5 AccurateRip v1 signature : 46DA2197 AccurateRip v2 signature : 50BE4F40 ->Accurately ripped (v1+v2, confidence 6+7/27) Statistics Read error : 0 Jitter error (maybe fixed) : 0 Retry sector count : 0 Damaged sector count : 0
Track 18
CRC32 hash : D1859742 CRC32 hash (skip zero) : 6BC41BBF AccurateRip v1 signature : 385D10AD AccurateRip v2 signature : DC74457C ->Accurately ripped (v1+v2, confidence 6+7/27) Statistics Read error : 0 Jitter error (maybe fixed) : 0 Retry sector count : 0 Damaged sector count : 0
No errors occurred
End of status report

Содержание индексной карты (.CUE)Содержание индексной карты (.CUE) CD 1

TITLE "Samson et Dalila, Disc 1"PERFORMER "Colin Davis"REM GENRE "Classical"REM DATE "1998"REM DISCID A50A800DFILE "Samson et Dalila, Disc 1.flac" WAVE TRACK 01 AUDIO TITLE "Act 1, Scene 1: Dieu! Dieu d'Israel! Ecoute la priere" ISRC FRZ209802301 INDEX 01 00:00:00 TRACK 02 AUDIO TITLE "Un jour, de nous tu detournas la face" ISRC FRZ209802302 INDEX 01 05:21:65 TRACK 03 AUDIO TITLE "Arretez, o mes freres!" ISRC FRZ209802303 INDEX 01 09:15:02 TRACK 04 AUDIO TITLE "L'as-tu donc oublie, celui dont la puissance" ISRC FRZ209802304 INDEX 01 11:56:65 TRACK 05 AUDIO TITLE "Scene 2: Qui donc eleve ici la voix?" ISRC FRZ209802305 INDEX 01 15:16:20 TRACK 06 AUDIO TITLE "C'est toi que sa bouche invective" ISRC FRZ209802306 INDEX 01 17:49:45 TRACK 07 AUDIO TITLE "Scene 3: Que vois-je? Abimelech!" ISRC FRZ209802307 INDEX 01 20:51:20 TRACK 08 AUDIO TITLE "Scene 4: Seigneur! La troupe furieuse" ISRC FRZ209802308 INDEX 01 22:02:00 TRACK 09 AUDIO TITLE "Scene 5: Hymne de joie, Hymne de delivrance" ISRC FRZ209802309 INDEX 01 24:51:62 TRACK 10 AUDIO TITLE "Scene 6: Voici le printemps nous portant des fleurs" ISRC FRZ209802310 INDEX 01 30:15:50 TRACK 11 AUDIO TITLE "Je viens celebrer la victoire" ISRC FRZ209802311 INDEX 01 32:44:47 TRACK 12 AUDIO TITLE "Danse des pretresses de Dagon" ISRC FRZ209802312 INDEX 01 36:01:35 TRACK 13 AUDIO TITLE "Printemps qui commence" ISRC FRZ209802313 INDEX 01 38:28:42

Содержание индексной карты (.CUE) CD 2

TITLE "Samson et Dalila, Disc 2"PERFORMER "Colin Davis"CATALOG 3984247560220REM GENRE "Classical"REM DATE "1998"REM DISCID 10128712FILE "Samson et Dalila, Disc 2.flac" WAVE TRACK 01 AUDIO TITLE "Act 2: Prelude" ISRC FRZ209802314 INDEX 01 00:00:00 TRACK 02 AUDIO TITLE "Scene 1: Samson, recherchant ma presence" ISRC FRZ209802315 INDEX 01 02:17:52 TRACK 03 AUDIO TITLE "Scene 2: J'ai gravi la montagne" ISRC FRZ209802316 INDEX 01 07:11:27 TRACK 04 AUDIO TITLE "Qu'importe a Dalila ton or?" ISRC FRZ209802317 INDEX 01 12:03:12 TRACK 05 AUDIO TITLE "Il faut, pour assouvir ma haine" ISRC FRZ209802318 INDEX 01 15:54:35 TRACK 06 AUDIO TITLE "Samson, me disais-tu, dans ces lieux" ISRC FRZ209802319 INDEX 01 17:54:00 TRACK 07 AUDIO TITLE "Scene 3: En ces lieux, malgre moi" ISRC FRZ209802320 INDEX 01 21:00:52 TRACK 08 AUDIO TITLE "Qu'importe a mon coeur desole" ISRC FRZ209802321 INDEX 01 25:44:57 TRACK 09 AUDIO TITLE "Mon coeur s'ouvre a ta voix" ISRC FRZ209802322 INDEX 01 30:41:00 TRACK 10 AUDIO TITLE "Mais!... Non! que dis-je?" ISRC FRZ209802323 INDEX 01 36:42:10 TRACK 11 AUDIO TITLE "Act 3, Scene 1: Vois ma misere, helas! vois ma detresse!" ISRC FRZ209802324 INDEX 00 42:51:62 INDEX 01 42:54:42 TRACK 12 AUDIO TITLE "Scene 2: L'aube qui blanchit deja les coteaux" ISRC FRZ209802325 INDEX 01 53:55:27 TRACK 13 AUDIO TITLE "Bacchanale" ISRC FRZ209802326 INDEX 01 57:31:57 TRACK 14 AUDIO TITLE "Scene 3: Salut! Salut au juge d'Israel" ISRC FRZ209802327 INDEX 01 64:03:07 TRACK 15 AUDIO TITLE "Laisse-moi prendre ta main" ISRC FRZ209802328 INDEX 01 66:16:22 TRACK 16 AUDIO TITLE "Allons, Samson, divertis-nous" ISRC FRZ209802329 INDEX 01 69:07:65 TRACK 17 AUDIO TITLE "Viens, Dalila, rendre grace a nos dieux" ISRC FRZ209802330 INDEX 01 71:03:65 TRACK 18 AUDIO TITLE "Guidez ses pas vers le milieu du temple" ISRC FRZ209802331 INDEX 01 75:04:35

Треклист

Disc 1:
Act I:
1. Scene 1: 'Dieu! Dieu d'Israel! Ecoute la priere'
2. Scene 1: 'Un jour, de nous tu detournas la face'
3. Scene 1: 'Arretez, o mes freres!'
4. Scene 1: 'L'as-tu donc oublie, celui dont la puissance'
5. Scene 2: 'Qui donc eleve ici la voix?'
6. Scene 2: 'C'est toi que sa bouche invective'
7. Scene 3: 'Que vois-je? Abimelech!'
8. Scene 4: 'Seigneur! La troupe furieuse'
9. Scene 5: 'Hymne de joie, Hymne de delivrance'
10. Scene 6: 'Voici le printemps nous portant des fleurs'
11. Scene 6: 'Je viens celebrer la victoire'
12. Scene 6: Danse des pretresses de Dagon
13. Scene 6: 'Printemps qui commence'
Disc 2:
Act II:
1. Prelude
2. Scene 1: 'Samson, recherchant ma presence'
3. Scene 2: 'J'ai gravi la montagne'
4. Scene 2: 'Qu'importe a Dalila ton or?'
5. Scene 2: 'Il faut, pour assouvir ma haine'
6. Scene 2: 'Samson, me disais-tu, dans ces lieux'
7. Scene 3: 'En ces lieux, malgre moi'
8. Scene 3: 'Qu'importe a mon coeur desole'
9. Scene 3: 'Mon coeur s'ouvre a ta voix'
10. Scene 3: 'Mais!... Non! que dis-je?'
Act III:
11. Scene 1: 'Vois ma misere, helas! vois ma detresse!'
12. Scene 2: 'L'aube qui blanchit deja les coteaux'
13. Scene 2: Bacchanale
14. Scene 3: 'Salut! Salut au juge d'Israel'
15. Scene 3: 'Laisse-moi prendre ta main'
16. Scene 3: 'Allons, Samson, divertis-nous'
17. Scene 3: 'Viens, Dalila, rendre grace a nos dieux'
18. Scene 3: 'Guidez ses pas vers le milieu du temple'



Показать сообщения:    

Текущее время: 09-Дек 06:55

Часовой пояс: UTC + 3


Вы не можете начинать темы
Вы не можете отвечать на сообщения
Вы не можете редактировать свои сообщения
Вы не можете удалять свои сообщения
Вы не можете голосовать в опросах
Вы не можете прикреплять файлы к сообщениям
Вы не можете скачивать файлы