День на двоих (Владимир Латышев) [1985 г., детектив, фильм-спектакль, TVRip]


 

[Цитировать]

День на двоих (2 серии) Год выпуска: 1985.
Жанр: детектив, фильм-спектакль.
Продолжительность: 00:54:15 + 01:03:56 (01:58:11).
Режиссер-постановщик: Владимир Латышев.
Действующие лица и исполнители:
Дробышев - Леонид Леонидов,
Самарин - Валерий Полетаев,
Санин - Владимир Каширин,
Ольга - Татьяна Кузнецова,
Николай - Валерий Доронин.
В остальных ролях:
Владимир Изотов, Михаил Кузнецов, Андрей Ургант, Сергей Окман, Владимир Некрасов, Евгения Бельская, Леонид Тимцуник, Александр Сланкснис, Андрей Рудень, Анастасия Власова, Марина Чернышова, Галина Гальцева, Андрей Павловец, Михаил Щетинин и др.
Описание:
Из цикла "Следы остаются" (Дела и люди ленинградской милиции).
Спектакль, основан на документальном материале уголовного дела, рассмотренного городским судом.
Совершено преступление. Исчезает молодая кассир одного из предприятий с крупной суммой денег. Группа сотрудников Управления уголовного розыска включается в работу. А через несколько дней полковнику Дробышеву докладывают об убийстве молодого человека на пустыре, у стоянки катеров. Расследование поручается группе капитана Самарина.
Кто преступник? Каковы мотивы его действий? Имеют ли два эти преступления связь? Эти и многие другие вопросы встали перед следователями.

Дополнительная информация:
Страна: СССР .
Выпущено: © Ленинградское телевидение.
Оператор: Александр Дегтярев.

Релиз

Качество: TVRip
Формат: AVI
Видео: 640x480 (1.33:1), 25 fps, XviD MPEG-4 ~1517 kbps avg, 0.20 bit/pixel
Аудио: 44.100 kHz, MPEG Layer 3, 2 ch, ~128.00 kbps avg

Отчет MI

1-я серия:
General
Complete name : Den'.na.dvoih.(2.serii.iz.2).1985.XviD.TVRip.fenixclub\Den'.na.dvoih.1985.1-ya.seriya.avi
Format : AVI
Format/Info : Audio Video Interleave
File size : 642 MiB
Duration : 54mn 15s
Overall bit rate : 1 656 Kbps
Writing application : VirtualDubModRus 1.5.10.2 (build 2542/release)
Writing library : VirtualDub build 32842/release
Video
ID : 0
Format : MPEG-4 Visual
Format profile : Advanced Simple@L5
Format settings, BVOP : 2
Format settings, QPel : No
Format settings, GMC : No warppoints
Format settings, Matrix : Default (MPEG)
Codec ID : XVID
Codec ID/Hint : XviD
Duration : 54mn 15s
Bit rate : 1 518 Kbps
Width : 640 pixels
Height : 480 pixels
Display aspect ratio : 4:3
Frame rate : 25.000 fps
Color space : YUV
Chroma subsampling : 4:2:0
Bit depth : 8 bits
Scan type : Progressive
Compression mode : Lossy
Bits/(Pixel*Frame) : 0.198
Stream size : 589 MiB (92%)
Writing library : XviD 73
Audio
ID : 1
Format : MPEG Audio
Format version : Version 1
Format profile : Layer 3
Mode : Joint stereo
Mode extension : MS Stereo
Codec ID : 55
Codec ID/Hint : MP3
Duration : 54mn 15s
Bit rate mode : Constant
Bit rate : 128 Kbps
Channel(s) : 2 channels
Sampling rate : 44.1 KHz
Compression mode : Lossy
Stream size : 49.7 MiB (8%)
Alignment : Split accross interleaves
Interleave, duration : 40 ms (1.00 video frame)
Interleave, preload duratio : 500 ms
Writing library : LAME
2-я серия:
General
Complete name : Den'.na.dvoih.(2.serii.iz.2).1985.XviD.TVRip.fenixclub\Den'.na.dvoih.1985.2-ya.seriya.avi
Format : AVI
Format/Info : Audio Video Interleave
File size : 757 MiB
Duration : 1h 3mn
Overall bit rate : 1 656 Kbps
Writing application : VirtualDubModRus 1.5.10.2 (build 2542/release)
Writing library : VirtualDubMod build 2542/release
Video
ID : 0
Format : MPEG-4 Visual
Format profile : Advanced Simple@L5
Format settings, BVOP : 2
Format settings, QPel : No
Format settings, GMC : No warppoints
Format settings, Matrix : Default (MPEG)
Codec ID : XVID
Codec ID/Hint : XviD
Duration : 1h 3mn
Bit rate : 1 518 Kbps
Width : 640 pixels
Height : 480 pixels
Display aspect ratio : 4:3
Frame rate : 25.000 fps
Color space : YUV
Chroma subsampling : 4:2:0
Bit depth : 8 bits
Scan type : Progressive
Compression mode : Lossy
Bits/(Pixel*Frame) : 0.198
Stream size : 694 MiB (92%)
Writing library : XviD 73
Audio
ID : 1
Format : MPEG Audio
Format version : Version 1
Format profile : Layer 3
Codec ID : 55
Codec ID/Hint : MP3
Duration : 1h 3mn
Bit rate mode : Constant
Bit rate : 128 Kbps
Channel(s) : 2 channels
Sampling rate : 44.1 KHz
Compression mode : Lossy
Stream size : 58.5 MiB (8%)
Alignment : Split accross interleaves
Interleave, duration : 40 ms (1.00 video frame)
Interleave, preload duratio : 500 ms
Writing library : LAME3.99r
Encoding settings : -m s -V 4 -q 2 -lowpass 17 -b 128

Скриншоты


Альтернативный хост





Показать сообщения:    

Текущее время: 03-Дек 18:35

Часовой пояс: UTC + 3


Вы не можете начинать темы
Вы не можете отвечать на сообщения
Вы не можете редактировать свои сообщения
Вы не можете удалять свои сообщения
Вы не можете голосовать в опросах
Вы не можете прикреплять файлы к сообщениям
Вы не можете скачивать файлы