Омут (Владимир Латышев) [1985 г., детектив, фильм-спектакль, TVRip]


 

[Цитировать]

Омут Год выпуска: 1985.
Жанр: детектив, фильм-спектакль.
Продолжительность: 01:17:59.
Режиссер-постановщик: Владимир Латышев.
В ролях:
Леонид Леонидов, Валерий Полетаев, Олег Ефремов, Андрей Ургант, Сергей Окман, Сергей Кашеваров, Валентина Николаева, Елена Соловьева, Андрей Павловец, Владимир Залыгин, Владимир Каширин, Сергей Реммех, Станислав Мухин, Александр Пестов и др.
Описание:
Из цикла "Следы остаются" (Дела и люди ленинградской милиции).
Теледетектив, созданный на строго документальном материале уголовного дела, рассмотренного Ленинградским городским судом.
Совершено преступление. Самое страшное - убийство... Кто виновник? Каковы мотивы преступления?
Эти и множество сопутствующих вопросов встают перед полковником милиции Дробышевым и старшим лейтенантом Самариным. В процессе следствия сталкиваются они с молодыми людьми, духовная нищета которых страшна своими моральными последствиями. Спекуляция, фарцовка, стремление к наживе - все это процветает в среде тех людей, где произошло преступление. Их жизненная позиция способствовала ему.
Убийцы пойманы и осуждены. Но многие остались за рамками закона. Что ждет их завтра?.. Это тяжелое горестное чувство не оставляет Дробышева и Самарина, когда вспоминают они об убийстве на старом кладбище...

Дополнительная информация:
Страна: СССР .
Выпущено: © Ленинградское телевидение.
Оператор: Борис Волох.

Релиз

Качество: TVRip
Формат: AVI
Видео: 640x480 (1.33:1), 25 fps, XviD build 50 ~1194 kbps avg, 0.16 bit/pixel
Аудио: 44.100 kHz, MPEG Layer 3, 2 ch, ~128.00 kbps avg

Отчет MI

Общее
Полное имя : Omut.1985.XviD.TVRip.fenixclub.avi
Format : AVI
Format/Info : Audio Video Interleave
File size : 743 MiB
Duration : 1h 17mn
Overall bit rate : 1 333 Kbps
Writing application : VirtualDubMod 1.5.10.3 | www.virtualdub-fr.org || (build 2550/release)
Writing library : VirtualDubMod build 2550/release
Video
ID : 0
Format : MPEG-4 Visual
Format profile : Advanced Simple@L5
Format settings, BVOP : 2
Format settings, QPel : No
Format settings, GMC : No warppoints
Format settings, Matrix : Default (H.263)
Codec ID : XVID
Codec ID/Hint : XviD
Duration : 1h 17mn
Bit rate : 1 195 Kbps
Width : 640 pixels
Height : 480 pixels
Display aspect ratio : 4:3
Frame rate : 25.000 fps
Color space : YUV
Chroma subsampling : 4:2:0
Bit depth : 8 bits
Scan type : Progressive
Compression mode : Lossy
Bits/(Pixel*Frame) : 0.156
Stream size : 666 MiB (90%)
Writing library : XviD 1.2.1 (UTC 2008-12-04)
Audio
ID : 1
Format : MPEG Audio
Format version : Version 1
Format profile : Layer 3
Codec ID : 55
Codec ID/Hint : MP3
Duration : 1h 17mn
Bit rate mode : Constant
Bit rate : 128 Kbps
Channel(s) : 2 channels
Sampling rate : 44.1 KHz
Compression mode : Lossy
Stream size : 71.4 MiB (10%)
Alignment : Split accross interleaves
Interleave, duration : 40 ms (1.00 video frame)
Interleave, preload duratio : 500 ms
Writing library : LAME3.99r
Encoding settings : -m s -V 4 -q 2 -lowpass 17 -b 128

Скриншоты


Альтернативный хост





Показать сообщения:    

Текущее время: 05-Дек 03:24

Часовой пояс: UTC + 3


Вы не можете начинать темы
Вы не можете отвечать на сообщения
Вы не можете редактировать свои сообщения
Вы не можете удалять свои сообщения
Вы не можете голосовать в опросах
Вы не можете прикреплять файлы к сообщениям
Вы не можете скачивать файлы