Сид и Нэнси / Sid and Nancy (Алекс Кокс / Alex Cox) [1986, Великобритания, драма, биография, музыка, BDRip] MVO (ОРТ)


 

[Цитировать]

Сид и Нэнси / Sid and Nancy
Год выпуска: 1986
Страна: Великобритания
Жанр: драма, биография, музыка
Продолжительность: 01:53:23
Перевод: Профессиональный (многоголосый закадровый) - ОРТ
Cубтитры: нет
Режиссер: Алекс Кокс / Alex Cox
В ролях: Гари Олдман (Sid Vicious), Хлоя Уэбб (Nancy Spungen), Дэвид Хеймен (Malcolm), Дебби Бишоп (Phoebe), Эндрю Скофилд (John), Ксандер Беркли (Bowery Snax), Перри Бенсон (Paul), Тони Лондон (Steve), Сэнди Бэрон (Hotelier - U.S.A.), Сай Ричардсон (Methadone Caseworker)-Мировая премьера: 29 августа 1986-Описание: Эпическая драма о жизни и смерти Сида Вишеса, фильм о сумасшедшем времени — 70-х, о рок музыке, о становлении и распаде легендарной группы Sex Pistols, о любви, о поисках свободы и разочарованиях…
На русский язык фильм озвучен кинокомпанией "Селена Интернешнл" по заказу Общественного Российского Телевидения.
Текст читают Андрей Ярославцев, Сергей Чекан и Ирина Гришина.-Рейтинг

MPAA: R - Лицам до 17 лет обязательно присутствие взрослого.-Качество видео: BDRip
Формат видео: AVI -> //SAMPLE//
Видео: XviD, 720x400 (16:9), 23.976 fps, 1549 kbps avg
Аудио:
1 - 48 khz, AC3 Dolby Digital, 2/0 ch, ~192 kbps [ОРТ / LNT] VHSRip

MediaInfo

General
Complete name : D:\Торрент Файлы\Будущие Релизы на Трекере\1.35 - 1.46 и более гб\Сид и Нэнси (ОРТ).avi
Format : AVI
Format/Info : Audio Video Interleave
File size : 1.39 GiB
Duration : 1h 53mn
Overall bit rate : 1 750 Kbps
Writing application : VirtualDubMod 1.5.10.3 | www.virtualdub-fr.org || (build 2550/release)
Writing library : VirtualDubMod build 2550/release
Video
ID : 0
Format : MPEG-4 Visual
Format profile : Advanced Simple@L5
Format settings, BVOP : 1
Format settings, QPel : No
Format settings, GMC : No warppoints
Format settings, Matrix : Default (MPEG)
Codec ID : XVID
Codec ID/Hint : XviD
Duration : 1h 53mn
Bit rate : 1 549 Kbps
Width : 720 pixels
Height : 400 pixels
Display aspect ratio : 16:9
Frame rate : 23.976 fps
Color space : YUV
Chroma subsampling : 4:2:0
Bit depth : 8 bits
Scan type : Progressive
Compression mode : Lossy
Bits/(Pixel*Frame) : 0.224
Stream size : 1.23 GiB (88%)
Writing library : XviD 1.2.1 (UTC 2008-12-04)
Audio
ID : 1
Format : AC-3
Format/Info : Audio Coding 3
Mode extension : CM (complete main)
Format settings, Endianness : Big
Codec ID : 2000
Duration : 1h 53mn
Bit rate mode : Constant
Bit rate : 192 Kbps
Channel(s) : 2 channels
Channel positions : Front: L R
Sampling rate : 48.0 KHz
Compression mode : Lossy
Stream size : 156 MiB (11%)
Alignment : Split accross interleaves
Interleave, duration : 42 ms (1.00 video frame)
Interleave, preload duratio : 500 ms

Скриншот c названием фильма

Скриншоты




Показать сообщения:    

Текущее время: 02-Дек 23:03

Часовой пояс: UTC + 3


Вы не можете начинать темы
Вы не можете отвечать на сообщения
Вы не можете редактировать свои сообщения
Вы не можете удалять свои сообщения
Вы не можете голосовать в опросах
Вы не можете прикреплять файлы к сообщениям
Вы не можете скачивать файлы