(Opera, Vocal) Самюэл Рейми - Арии Россини / Samuel Ramey - Rossini Arias (Operatic Scenes for bass from La cenerentola, L' italiana in Algeri, Semiramide, Il viaggio a Reims, Stabat mater), 1991 - Studio recording, FLAC (image+.cue), lossless


 

[Цитировать]

Samuel Ramey - Rossini Arias
Жанр: Opera, Vocal
Страна-производитель диска: CША
Год издания диска: 1991
Издатель (лейбл): Teldec
Дата записи: 1991
Аудиокодек: FLAC
Тип рипа: image+.cue
Битрейт аудио: lossless
Продолжительность: 67:41
Источник: релизер (Canarias es Musica)
Исполнители:
Samuel Ramey, bass,
Gabriele Ferro, conductor,
Welsh National Opera Chorus & Orchestra.
Recorded at Brangwyn Hall, Swansea, Glamorgan, Wales, July, 1991.

Лог создания рипа

X Lossless Decoder version 20141129a (148.2)
XLD extraction logfile from 2015-10-17 13:09:10 +0100
Varios Artistas / Ramey - Rossini Arias
Used drive : MATSHITA DVD-R UJ-8A8 (revision HB14)Media type : Pressed CD
Ripper mode : XLD Secure RipperDisable audio cache : OK for the drive with a cache less than 1375KiBMake use of C2 pointers : NORead offset correction : 102Max retry count : 20Gap status : Analyzed, Appended
TOC of the extracted CD Track | Start | Length | Start sector | End sector --------------------------------------------------------- 1 | 00:00:00 | 15:09:50 | 0 | 68224 2 | 15:09:50 | 05:24:12 | 68225 | 92536 3 | 20:33:62 | 07:18:65 | 92537 | 125451 4 | 27:52:52 | 07:19:10 | 125452 | 158386 5 | 35:11:62 | 11:08:63 | 158387 | 208549 6 | 46:20:50 | 03:15:12 | 208550 | 223186 7 | 49:35:62 | 18:08:25 | 223187 | 304811
AccurateRip Summary (DiscID: 001205de-006a3326-5d0fe007) Track 01 : OK (v1+v2, confidence 14/14) Track 02 : OK (v1+v2, confidence 14/14) Track 03 : OK (v1+v2, confidence 14/14) Track 04 : OK (v1+v2, confidence 14/14) Track 05 : OK (v1+v2, confidence 14/14) Track 06 : OK (v1+v2, confidence 14/14) Track 07 : OK (v1+v2, confidence 13/13) ->All tracks accurately ripped.
All Tracks Filename : /Users/Juan/Downloads/SRamRossArias/Ramey - Rossini Arias.flac CRC32 hash : 662146D4 CRC32 hash (skip zero) : 932251B9 Statistics Read error : 0 Jitter error (maybe fixed) : 0 Retry sector count : 0 Damaged sector count : 0
Track 01 Pre-gap length : 00:02:00
CRC32 hash : 57F6E3BA CRC32 hash (skip zero) : D803B7EA AccurateRip v1 signature : D976427F AccurateRip v2 signature : EB30BF75 ->Accurately ripped (v1+v2, confidence 6+8/14) Statistics Read error : 0 Jitter error (maybe fixed) : 0 Retry sector count : 0 Damaged sector count : 0
Track 02 Pre-gap length : 00:08:40
CRC32 hash : 1C25EF57 CRC32 hash (skip zero) : CDF927AE AccurateRip v1 signature : 217852F7 AccurateRip v2 signature : 410DBA04 ->Accurately ripped (v1+v2, confidence 6+8/14) Statistics Read error : 0 Jitter error (maybe fixed) : 0 Retry sector count : 0 Damaged sector count : 0
Track 03 Pre-gap length : 00:07:02
CRC32 hash : B6C226FE CRC32 hash (skip zero) : AB102273 AccurateRip v1 signature : DC3B9C3E AccurateRip v2 signature : 6BE71A9B ->Accurately ripped (v1+v2, confidence 6+8/14) Statistics Read error : 0 Jitter error (maybe fixed) : 0 Retry sector count : 0 Damaged sector count : 0
Track 04 Pre-gap length : 00:05:40
CRC32 hash : BDB7DDDA CRC32 hash (skip zero) : 370ABC74 AccurateRip v1 signature : FF26FC72 AccurateRip v2 signature : 7E9B4A4F ->Accurately ripped (v1+v2, confidence 6+8/14) Statistics Read error : 0 Jitter error (maybe fixed) : 0 Retry sector count : 0 Damaged sector count : 0
Track 05 Pre-gap length : 00:07:00
CRC32 hash : 3860672F CRC32 hash (skip zero) : 6EA28702 AccurateRip v1 signature : C9831F99 AccurateRip v2 signature : DF9E3730 ->Accurately ripped (v1+v2, confidence 6+8/14) Statistics Read error : 0 Jitter error (maybe fixed) : 0 Retry sector count : 0 Damaged sector count : 0
Track 06 Pre-gap length : 00:05:68
CRC32 hash : 0216878B CRC32 hash (skip zero) : 24D35544 AccurateRip v1 signature : 24CF3B6E AccurateRip v2 signature : 2FD44F1D ->Accurately ripped (v1+v2, confidence 6+8/14) Statistics Read error : 0 Jitter error (maybe fixed) : 0 Retry sector count : 0 Damaged sector count : 0
Track 07 Pre-gap length : 00:05:72
CRC32 hash : 72266CF9 CRC32 hash (skip zero) : 76F328A2 AccurateRip v1 signature : 31EEB060 AccurateRip v2 signature : 4F41B2EC ->Accurately ripped (v1+v2, confidence 5+8/13) Statistics Read error : 0 Jitter error (maybe fixed) : 0 Retry sector count : 0 Damaged sector count : 0
No errors occurred
End of status report

Содержание индексной карты (.CUE)

TITLE "Ramey - Rossini Arias"CATALOG 9031732420201REM GENRE "Opera"REM DATE "1992"REM DISCID 5D0FE007REM COMPILATION TRUEFILE "Ramey - Rossini Arias.flac" WAVE TRACK 01 AUDIO TITLE "Samuel Ramey; Gabriele Ferro, Orchester Welsh National Opera / Viaggio A Reims - Ah! Perche la conobbi?" PERFORMER "Samuel Ramey" INDEX 01 00:00:00 TRACK 02 AUDIO TITLE "Samuel Ramey; Gabriele Ferro, Orchester Welsh National Opera / Stabat Mater - Pro peccatis" PERFORMER "Samuel Ramey" INDEX 00 15:01:10 INDEX 01 15:09:50 TRACK 03 AUDIO TITLE "Samuel Ramey; Gabriele Ferro, Orchester Welsh National Opera / Cenerentola - La del ciel nell'arcano" PERFORMER "Samuel Ramey" INDEX 00 20:26:60 INDEX 01 20:33:62 TRACK 04 AUDIO TITLE "Cenerentola - Come un'ape ne'giorni" PERFORMER "Samuel Ramey; Gabriele Ferro, Orchester Welsh National Opera; R.Evans, J.Watson, P.Brander, A.Thorburn" INDEX 00 27:47:12 INDEX 01 27:52:52 TRACK 05 AUDIO TITLE "Samuel Ramey; Gabriele Ferro, Orchester Welsh National Opera / Alle voci della gloria" PERFORMER "Samuel Ramey" INDEX 00 35:04:62 INDEX 01 35:11:62 TRACK 06 AUDIO TITLE "Samuel Ramey; Gabriele Ferro, Orchester Welsh National Opera / Italiana in Algeri - Le femmine d'Italia" PERFORMER "Samuel Ramey" INDEX 00 46:14:57 INDEX 01 46:20:50 TRACK 07 AUDIO TITLE "Samuel Ramey; Gabriele Ferro, Orchester Welsh National Opera / Semiramide - Il di gia cade" PERFORMER "Samuel Ramey" INDEX 00 49:29:65 INDEX 01 49:35:62

Треклист

Gioachino Rossini:
1. Il viaggio a Reims: ''Ah! Perche La Conobbi?... Invan Strappar''
2. Stabat mater for 2 sopranos, tenor, bass, chorus & orchestra: ''Pro Peccatis''
La cenerentola (Cinderella):
3. ''Là Del Ciel Nell'Arcano Profondo''
4. ''Come Un'Ape Ne'Giomi D'Aprile''
5. ''Alle Voci Della Gloria''
6. L' italiana in Algeri (The Italian Girl in Algiers): "Le Femmine D'Italia"
7. Semiramide: "Il Di Gia Cade...Deh Ti Ferma... Que'Numi Furenti"



Показать сообщения:    

Текущее время: 08-Дек 19:02

Часовой пояс: UTC + 3


Вы не можете начинать темы
Вы не можете отвечать на сообщения
Вы не можете редактировать свои сообщения
Вы не можете удалять свои сообщения
Вы не можете голосовать в опросах
Вы не можете прикреплять файлы к сообщениям
Вы не можете скачивать файлы