(Classical) Deutsche Harmonia Mundi - 50 CD Collection - 2014, FLAC (image+.cue) lossless


 

[Цитировать]

Deutsche Harmonia Mundi - 50 CD Collection
Жанр: Classical
Год издания диска: 201
Издатель (лейбл): Deutsche Grammophon / Sony Music
Номер по каталогу: 88875037502
Год записи: 2014
Аудиокодек: FLAC
Тип рипа: image+.cue
Битрейт аудио: lossless
Продолжительность: 03:36:14
Источник: скачано из сети
Наличие сканов в содержимом раздачи: да
Исполнители:

CD01: Händel alla Turca "Amor Oriental" [69.27]:

Исполнители:
Juanita Lascarro, soprano
Frorin Cezar Ouatu, countertenor
Ahmet Özhan, dervish, singer
Ensemble l'Arte del Mondo
Pera Ensemble
Треклист:
01. Alcina - Overture (05:02)
02. Rinaldo - 'Augelletti che cantate' (Armida) (03:10)
03. Rinaldo - 'Or la tromba in suon festante' (Rinaldo) (03:29)
04. Rinaldo - Battaglia (01:24)
05. Rinaldo - 'Fermati ... Non, crudel' (Armida, Rinaldo) (01:59)
06. Rinaldo - 'Furie terribili' (Rinaldo) (01:52)
07. Giulio Cesare - 'Son nata' (Cornelia, Sesto) (04:15)
08. Giulio Cesare - 'Piangero la sorte mia' (Cleopatra) (02:26)
09. Rinaldo - 'Venti, turbini, prestate' (Rinaldo) (03:34)
10. Rinaldo - Prelude (00:49)
11. 'Hak selleri hayreyler' Erzurumlu Ibrahim Hakki (04:49)
12. 'Kanun Taksim', Turkish improvisation on Kanun (01:04)
13. Serse - 'Ombra mai fu di vegetabile' (Serse) (02:37)
14. Rinaldo - 'Ah crudel' (Armida) (05:49)
15. 'Gusel Asik' Sebilci / Abdal (02:34)
16. Alcina - Prelude 'Dream music' (01:36)
17. Rinaldo - Scherzano sul tuo volto'/' Ridono sul tuo labbro (03:23)
18. Kemence improvisation (01:02)
19. Giulio Cesare - 'Empio, diro, tu sei' (Giulio Cesare) (03:29)
20. Ud improvisation (01:00)
21. Giulio Cesare - 'Se pieta di me non senti' (Cleopatra) (04:08)
22. Percussion improvisation (00:46)
23. Alcina - Tamburino (01:01)
24. Agrippina - 'No, no ch'io bon apprezzo' (Ottone, Poppea) (03:43)
25. Finale: Ilahis, anonym/ Niyazi Misri (04:17)-

LOG CD01:

Exact Audio Copy V1.0 beta 3 from 29. August 2011
EAC extraction logfile from 19. October 2015, 12:46
Ensembles l`arte del mondo & Pera / Handel alla turca - Amor Oriental
Used drive : PIONEER BD-RW BDR-207M Adapter: 0 ID: 0
Read mode : SecureUtilize accurate stream : YesDefeat audio cache : YesMake use of C2 pointers : No
Read offset correction : 667Overread into Lead-In and Lead-Out : NoFill up missing offset samples with silence : YesDelete leading and trailing silent blocks : NoNull samples used in CRC calculations : YesUsed interface : Native Win32 interface for Win NT & 2000
Used output format : User Defined EncoderSelected bitrate : 128 kBit/sQuality : HighAdd ID3 tag : NoCommand line compressor : C:\Program Files\Exact Audio Copy\Flac\flac.exeAdditional command line options : -V -8 -T "Date=%year%" -T "Genre=%genre%" %source%
TOC of the extracted CD
Track | Start | Length | Start sector | End sector---------------------------------------------------------1 | 0:00.00 | 5:02.30 | 0 | 226792 | 5:02.30 | 3:10.09 | 22680 | 369383 | 8:12.39 | 3:29.33 | 36939 | 526464 | 11:41.72 | 1:24.45 | 52647 | 589915 | 13:06.42 | 1:59.33 | 58992 | 679496 | 15:06.00 | 1:52.21 | 67950 | 763707 | 16:58.21 | 4:15.05 | 76371 | 955008 | 21:13.26 | 2:26.49 | 95501 | 1064999 | 23:40.00 | 3:34.47 | 106500 | 12259610 | 27:14.47 | 0:49.51 | 122597 | 12632211 | 28:04.23 | 4:49.15 | 126323 | 14801212 | 32:53.38 | 1:04.19 | 148013 | 15283113 | 33:57.57 | 2:37.10 | 152832 | 16461614 | 36:34.67 | 5:49.12 | 164617 | 19080315 | 42:24.04 | 2:34.08 | 190804 | 20236116 | 44:58.12 | 1:36.30 | 202362 | 20959117 | 46:34.42 | 3:23.40 | 209592 | 22485618 | 49:58.07 | 1:02.74 | 224857 | 22958019 | 51:01.06 | 3:29.30 | 229581 | 24528520 | 54:30.36 | 1:00.02 | 245286 | 24978721 | 55:30.38 | 4:08.61 | 249788 | 26844822 | 59:39.24 | 0:46.58 | 268449 | 27195623 | 60:26.07 | 1:01.11 | 271957 | 27654224 | 61:27.18 | 3:43.26 | 276543 | 29329325 | 65:10.44 | 4:17.35 | 293294 | 312603
Range status and errors
Selected range
Filename C:\Program Files\Exact Audio Copy\Flac\Handel alla turca - Amor Oriental.wav
Peak level 97.6 %Extraction speed 7.3 XRange quality 100.0 %Test CRC 7583EE46Copy CRC 7583EE46Copy OK
No errors occurred
End of status report
==== Log checksum 074287892DDDD25EFEFB4BEA80F0CA81906436D10493E86D14FBBDE9C97BB3BF ====

CD02: Thomas Arne - The Masque of Alfred [76.10]:

Исполнители:
Jennifer Smith, soprano
Christine Brandes, soprano
David Daniels, countertenor
Jamie MacDougall, tenor
Philharmonia Baroque Orchestra
Philharmonia Chorale
Direction - Nicholas McGegan
Треклист:
01. Overture - Allegro moderato (02:46)
02. Overture - Andante (02:40)
03. Overture - Tempo di minuetto (01:22)
04. Act I. Air 'Though to a desert isle confin'd' (Corin) (01:42)
05. Air 'The shepherd's plain life' (Emma) - Duet 'Then let us the snare of ambit... (03:23)
06. Air 'Come calm content' (Prince Edward) (03:25)
07. Air 'Sweet valley say where' (Eltruda) (02:12)
08. Air 'Why beats my heart with such devotion' (Prince Edward) (03:47)
09. Trio 'Let not those who love complain' (Alfred, Prince Edward, Eltruda) (03:19)
10. Air 'If those who live in shepherd's bow'r' (Emma) (02:18)
11. Act II. Air 'A youth adorn'd with ev'ry art' (Edith) (04:45)
12. Air 'From the dawn of early morning' (Alfred) (05:18)
13. Air 'As calms succeed when storms are past' (Prince Edward) (01:37)
14. Air 'Hear, Alfred, hear' (Spirit) (02:19)
15. Air 'Gracious heav'n, O hear me!' (Eltruda) (05:58)
16. Air 'Vengeance, O come inspire me!' (Prince Edward) (06:44)
17. Air 'Though storms awhile the sun obscure' (Alfred) (04:11)
18. Dirge 'There honour comes, a pilgrim grey' (Spirit) (02:54)
19. Act III. Recitative 'Ah, me! What fears oppress my throbbing heart!' (Recitat... (01:01)
20. Air 'Guardian angels, O descend' (Eltruda) (02:09)
21. Air 'Arise, sweet messenger of the morn' (Emma) (02:32)
22. March with a side drum (01:27)
23. Air 'See liberty, virtue and honour appearing' (Prince Edward) (04:35)
24. Ode 'When Britain first at heav'ns command' / 'Rule Brittania' (Alfred, Eltru... (03:35)-

LOG CD02:

Exact Audio Copy V1.0 beta 3 from 29. August 2011
EAC extraction logfile from 19. October 2015, 13:16
Nicholas McGegan / Arne - The Masque of Alfred
Used drive : PIONEER BD-RW BDR-207M Adapter: 0 ID: 0
Read mode : SecureUtilize accurate stream : YesDefeat audio cache : YesMake use of C2 pointers : No
Read offset correction : 667Overread into Lead-In and Lead-Out : NoFill up missing offset samples with silence : YesDelete leading and trailing silent blocks : NoNull samples used in CRC calculations : YesUsed interface : Native Win32 interface for Win NT & 2000
Used output format : User Defined EncoderSelected bitrate : 128 kBit/sQuality : HighAdd ID3 tag : NoCommand line compressor : C:\Program Files\Exact Audio Copy\Flac\flac.exeAdditional command line options : -V -8 -T "Date=%year%" -T "Genre=%genre%" %source%
TOC of the extracted CD
Track | Start | Length | Start sector | End sector---------------------------------------------------------1 | 0:00.00 | 2:46.20 | 0 | 124692 | 2:46.20 | 2:40.40 | 12470 | 245093 | 5:26.60 | 1:22.25 | 24510 | 306844 | 6:49.10 | 1:42.60 | 30685 | 383945 | 8:31.70 | 3:23.07 | 38395 | 536266 | 11:55.02 | 3:25.08 | 53627 | 690097 | 15:20.10 | 2:12.55 | 69010 | 789648 | 17:32.65 | 3:47.12 | 78965 | 960019 | 21:20.02 | 3:19.53 | 96002 | 11097910 | 24:39.55 | 2:18.12 | 110980 | 12134111 | 26:57.67 | 4:45.23 | 121342 | 14273912 | 31:43.15 | 5:18.17 | 142740 | 16660613 | 37:01.32 | 1:37.73 | 166607 | 17395414 | 38:39.30 | 2:19.27 | 173955 | 18440615 | 40:58.57 | 5:58.45 | 184407 | 21130116 | 46:57.27 | 6:44.23 | 211302 | 24162417 | 53:41.50 | 4:11.57 | 241625 | 26050618 | 57:53.32 | 2:54.65 | 260507 | 27362119 | 60:48.22 | 1:01.53 | 273622 | 27824920 | 61:50.00 | 2:09.67 | 278250 | 28799121 | 63:59.67 | 2:32.40 | 287992 | 29943122 | 66:32.32 | 1:27.63 | 299432 | 30601923 | 68:00.20 | 4:35.02 | 306020 | 32664624 | 72:35.22 | 3:36.05 | 326647 | 342851
Range status and errors
Selected range
Filename C:\Program Files\Exact Audio Copy\Flac\Arne - The Masque of Alfred.wav
Peak level 97.8 %Extraction speed 7.8 XRange quality 100.0 %Test CRC 004688DCCopy CRC 004688DCCopy OK
No errors occurred
End of status report
==== Log checksum 77FB7E0B6727284407040AECB60DA5F60B70B8BFB96AD5C1B9DF1BD2677D372A ====

CD03: C.P.E. Bach - Hamburger Sinfonien, WQ 182, 3-5; Concerti WQ 165 & 43, 4 [70.34]:

Исполнители:
Hans-Peter Westermann, oboe
Andreas Staier, harpsichord
Freiburger Barockorchester
Direction - Thomas Hengelbrock
Треклист:
01. Sinfonie C-dur Wq 182,3 (H 659): Allegro assai (02:46)
02. Sinfonie C-dur Wq 182,3 (H 659): Adagio (03:25)
03. Sinfonie C-dur Wq 182,3 (H 659): Allegretto (05:36)
04. Concerto C-moll fur Cembalo, Streicher und Bc Wq 43,4 (H 474): Allegro assai (03:17)
05. Concerto C-moll fur Cembalo, Streicher und Bc Wq 43,4 (H 474): Poco Adagio (01:55)
06. Concerto C-moll fur Cembalo, Streicher und Bc Wq 43,4 (H 474): Tempo di Menuetto (02:15)
07. Concerto C-moll fur Cembalo, Streicher und Bc Wq 43,4 (H 474): Allegro assai (04:31)
08. Sinfonie A-dur Wq 182,4 (H 660): Allegro ma non troppo (04:31)
09. Sinfonie A-dur Wq 182,4 (H 660): Largo et Innocemente (03:49)
10. Sinfonie A-dur Wq 182,4 (H 660): Allegro assai (04:23)
11. Concerto C-moll fur Oboe, Streicher und Bc Wq 165 (H 468): Allegro (06:31)
12. Concerto C-moll fur Oboe, Streicher und Bc Wq 165 (H 468): Adagio (09:14)
13. Concerto C-moll fur Oboe, Streicher und Bc Wq 165 (H 468): Allegro ma non troppo (07:19)
14. Sinfonie H-moll Wq 182,5 (H 661): Allegretto (03:58)
15. Sinfonie H-moll Wq 182,5 (H 661): Larghetto (03:13)
16. Sinfonie H-moll Wq 182,5 (H 661): Presto (03:43)-

LOG CD03:

Exact Audio Copy V1.0 beta 3 from 29. August 2011
EAC extraction logfile from 19. October 2015, 13:42
Thomas Hengelbrock / C.P.E. Bach - Hamburger Sinfonien, Concerti
Used drive : PIONEER BD-RW BDR-207M Adapter: 0 ID: 0
Read mode : SecureUtilize accurate stream : YesDefeat audio cache : YesMake use of C2 pointers : No
Read offset correction : 667Overread into Lead-In and Lead-Out : NoFill up missing offset samples with silence : YesDelete leading and trailing silent blocks : NoNull samples used in CRC calculations : YesUsed interface : Native Win32 interface for Win NT & 2000
Used output format : User Defined EncoderSelected bitrate : 128 kBit/sQuality : HighAdd ID3 tag : NoCommand line compressor : C:\Program Files\Exact Audio Copy\Flac\flac.exeAdditional command line options : -V -8 -T "Date=%year%" -T "Genre=%genre%" %source%
TOC of the extracted CD
Track | Start | Length | Start sector | End sector---------------------------------------------------------1 | 0:00.00 | 2:46.50 | 0 | 124992 | 2:46.50 | 3:25.37 | 12500 | 279113 | 6:12.12 | 5:36.50 | 27912 | 531614 | 11:48.62 | 3:17.30 | 53162 | 679665 | 15:06.17 | 1:55.15 | 67967 | 766066 | 17:01.32 | 2:15.50 | 76607 | 867817 | 19:17.07 | 4:31.55 | 86782 | 1071618 | 23:48.62 | 4:31.28 | 107162 | 1275149 | 28:20.15 | 3:49.10 | 127515 | 14469910 | 32:09.25 | 4:23.72 | 144700 | 16449611 | 36:33.22 | 6:31.70 | 164497 | 19389112 | 43:05.17 | 9:14.43 | 193892 | 23548413 | 52:19.60 | 7:19.25 | 235485 | 26843414 | 59:39.10 | 3:58.30 | 268435 | 28631415 | 63:37.40 | 3:13.37 | 286315 | 30082616 | 66:51.02 | 3:43.73 | 300827 | 317624
Range status and errors
Selected range
Filename C:\Program Files\Exact Audio Copy\Flac\C.P.E. Bach - Hamburger Sinfonien, Concerti.wav
Peak level 100.0 %Extraction speed 7.4 XRange quality 99.9 %Test CRC E566FB2FCopy CRC E566FB2FCopy OK
No errors occurred
End of status report
==== Log checksum AB0D93BF16AE60A4C304393731734E83B240F3AF06065B5EDF05C2CCB9E3B1E2 ====

CD04:

[img=right][/img]
Исполнители:
Треклист:-

LOG CD04:

Спасибо Vilboa за предоставление материала!

Внимание! Раздача ведется путем добавления новых дисков

Внимание! Раздача ведётся путём добавления новых дисков; при каждом добавлении создаётся новый торрент. Чтобы начать докачку нового диска, пользователям необходимо сделать следующее:
(1) остановить скачивание,
(2) удалить старый торрент у себя из клиента (старые диски удалять не надо),
(3) скачать новый торрент и запустить его у себя в клиенте вместо старого, при этом указать клиенту путь в старую папку куда и должно происходить скачивание новых дисков.
Ваш клиент при этом должен произвести хеширование (проверку) старой папки (если не производит сам - помогите ему сделать это), и будет докачивать только те диски которых у вас ещё нет. Старые диски при этом не удаляются, а продолжают раздаваться!
Eсли вы уже удалили старые диски, то предотвратить повторную закачку старых дисков можно, отжав галочку в соответствующих местах при запуске нового торрента. По возможности, желательно не удалять старые диски как можно дольше чтобы релизёр не столько продолжал раздавать старые диски, а смог сконцентрироваться на новых.



Показать сообщения:    

Текущее время: 08-Дек 08:58

Часовой пояс: UTC + 3


Вы не можете начинать темы
Вы не можете отвечать на сообщения
Вы не можете редактировать свои сообщения
Вы не можете удалять свои сообщения
Вы не можете голосовать в опросах
Вы не можете прикреплять файлы к сообщениям
Вы не можете скачивать файлы