Месть женщины / A Woman's Revenge / A Vingança de Uma Mulher (Рита Азеведу Гомеш / Rita Azevedo Gomes) [2012, Португалия, Драма, DVDRip] + Sub Rus + Original Por


Статистика раздачи [Обновить пиров]
Размер:  1.52 GB   |    Зарегистрирован:  1 год 1 месяц   |    Скачан:  2 раза

Полного источника не было: 2 месяца 2 дня

Личеров:  2  [  0 KB/s  ]   Подробная статистика пиров
 
   
 
 
 

[Цитировать]

Месть женщины / A Woman's Revenge / A Vingança de Uma Mulher
Страна: Португалия
Жанр: Драма
Год выпуска: 2012
Продолжительность: 01:40:31
Перевод: Субтитры
Cубтитры: английские, русские
Оригинальная аудиодорожка: португальский
Режиссер: Рита Азеведу Гомеш / Rita Azevedo Gomes
В ролях: Фернанду Родригес / Fernando Rodrigues, Хуго Турита / Hugo Tourita, Дуарте Мартинс / Duarte Martins
Описание: Настоящий денди познакомился однажды вечером с испанской куртизанкой, которая поведала ему драматичную историю своей жизни. Оказывается, она герцогиня, бывшая замужем за дворянином, ведущим генеалогию от Меровингов. Ее муж вероломно убил гостя, посмевшего в нее влюбиться. На глазах у герцогини сердце ее поклонника вырвали и скормили собакам. Она поклялась отомстить: навсегда запятнать позором имя супруга.
Сэмпл: http://sendfile.su/1166445
Качество видео: DVDRip
Формат видео: MKV
Видео: 1 924 Kbps, 720*564 (16:9), at 25.000 fps, AVC (High@L4.1) (CABAC/16 Ref Frames)
Аудио: 192 Kbps, 48.0 KHz, 16 bits, 2 channels, AC-3
Формат субтитров: softsub (SRT)
https://www.youtube.com/watch?v=TkstejiRDTQ

MediaInfo

General
Unique ID : 180314967096336397607635620380928973078 (0x87A76642B23A92429A071D489D811916)
Complete name : C:\Users\Никита\Desktop\A.Vinganca.de.uma.Mulher.AKA.A.Womans.Revenge.2012.DVDRip.x264-pirata00.mkv
Format : Matroska
Format version : Version 4 / Version 2
File size : 1.52 GiB
Duration : 1h 40mn
Overall bit rate : 2 159 Kbps
Encoded date : UTC 2015-10-11 10:36:42
Writing application : mkvmerge v7.8.0 ('River Man') 32bit built on Mar 27 2015 16:18:02
Writing library : libebml v1.3.1 + libmatroska v1.4.2
DURATION : 01:36:28.279000000
NUMBER_OF_FRAMES : 628
NUMBER_OF_BYTES : 39639
_STATISTICS_WRITING_APP : mkvmerge v7.8.0 ('River Man') 32bit built on Mar 27 2015 16:18:02
_STATISTICS_WRITING_DATE_UTC : 2015-10-11 10:36:42
_STATISTICS_TAGS : BPS DURATION NUMBER_OF_FRAMES NUMBER_OF_BYTES
Video
ID : 1
Format : AVC
Format/Info : Advanced Video Codec
Format profile : High@L4.1
Format settings, CABAC : Yes
Format settings, ReFrames : 16 frames
Codec ID : V_MPEG4/ISO/AVC
Duration : 1h 40mn
Bit rate : 1 924 Kbps
Width : 720 pixels
Height : 564 pixels
Display aspect ratio : 16:9
Frame rate mode : Constant
Frame rate : 25.000 fps
Color space : YUV
Chroma subsampling : 4:2:0
Bit depth : 8 bits
Scan type : Progressive
Bits/(Pixel*Frame) : 0.190
Stream size : 1.35 GiB (89%)
Writing library : x264 core 146 r2538 121396c
Encoding settings : cabac=1 / ref=16 / deblock=1:-3:-3 / analyse=0x3:0x133 / me=umh / subme=11 / psy=1 / psy_rd=1.10:0.04 / mixed_ref=1 / me_range=32 / chroma_me=1 / trellis=2 / 8x8dct=1 / cqm=0 / deadzone=21,11 / fast_pskip=0 / chroma_qp_offset=-3 / threads=12 / lookahead_threads=3 / sliced_threads=0 / nr=0 / decimate=1 / interlaced=0 / bluray_compat=0 / constrained_intra=0 / bframes=16 / b_pyramid=2 / b_adapt=2 / b_bias=0 / direct=3 / weightb=1 / open_gop=0 / weightp=2 / keyint=250 / keyint_min=25 / scenecut=40 / intra_refresh=0 / rc_lookahead=250 / rc=crf / mbtree=0 / crf=15.5 / qcomp=0.68 / qpmin=0 / qpmax=69 / qpstep=4 / vbv_maxrate=62500 / vbv_bufsize=78125 / crf_max=0.0 / nal_hrd=none / filler=0 / ip_ratio=1.40 / pb_ratio=1.30 / aq=2:0.90
Default : Yes
Forced : No
Audio
ID : 2
Format : AC-3
Format/Info : Audio Coding 3
Mode extension : CM (complete main)
Format settings, Endianness : Big
Codec ID : A_AC3
Duration : 1h 40mn
Bit rate mode : Constant
Bit rate : 192 Kbps
Channel(s) : 2 channels
Channel positions : Front: L R
Sampling rate : 48.0 KHz
Bit depth : 16 bits
Compression mode : Lossy
Stream size : 138 MiB (9%)
Language : Portuguese
Default : Yes
Forced : No
Text #1
ID : 3
Format : UTF-8
Codec ID : S_TEXT/UTF8
Codec ID/Info : UTF-8 Plain Text
Language : English
Default : Yes
Forced : No
Text #2
ID : 4
Format : UTF-8
Codec ID : S_TEXT/UTF8
Codec ID/Info : UTF-8 Plain Text
Language : Russian
Default : No
Forced : Yes

Скриншот c названием фильма

Скриншоты

[teatrix.ru].t9565.torrent 
Торрент: Зарегистрирован [ 2015-10-20 19:17 ] · 154F951B650C20D79BA40D29FF61C53A34061015

Скачать .torrent

Скачать

16 KB

Статус: проверено
Скачан: 2 раз
Размер: 1.52 GB
terms.php



Быстрый ответ

Имя:

      
Для отправки сообщений необходимо включить JavaScript
Показать сообщения:    

Текущее время: 03-Дек 16:42

Часовой пояс: UTC + 3


Вы можете начинать темы
Вы можете отвечать на сообщения
Вы не можете редактировать свои сообщения
Вы не можете удалять свои сообщения
Вы не можете голосовать в опросах
Вы не можете прикреплять файлы к сообщениям
Вы можете скачивать файлы