(classical crossover, christmas) Jarkko Ahola - Suojelusenkeli - Joulun Klassikot 2 - 2014 - 2014, FLAC (tracks+.cue) lossless


 

[Цитировать]

Jarkko Ahola - Suojelusenkeli - Joulun Klassikot 2 - 2014 - 2014
Жанр: classical crossover, christmas
Страна-производитель диска: Finland
Год первого выпуска: 2014
Год настоящего издания: 2014
Издатель (лейбл): Warner Music Finland
Номер по каталогу:
Format: CD, Album
Страна исполнителя (группы): Finland
Аудиокодек: FLAC (*.flac)
Тип рипа: tracks+.cue
Битрейт аудио: lossless
Продолжительность: 00:31:01
Источник (релизер): What.CD
Наличие сканов в содержимом раздачи: front
Треклист:
01. Ensimmäinen joulu (03:11)
02. Suojelusenkeli (03:27)
03. Oi jouluyö (O Holy Night) (04:21)
04. On hanget korkeat, nietokset (03:40)
05. Halleluja (04:37)
06. Senza Luce (04:31)
07. Con te Partiro (04:14)
08. Cavatina - She Was Beautiful (03:59)
09. Nuku vaan (03:54)
10. Finlandia (hymn) (02:35)

Лог создания рипа

Exact Audio Copy V1.0 beta 3 from 29. August 2011
EAC extraction logfile from 21. November 2014, 19:04
Jarkko Ahola / Suojelusenkeli – Joulun klassikot 2
Used drive : HL-DT-STBD-RE BH12LS30 Adapter: 0 ID: 0
Read mode : SecureUtilize accurate stream : YesDefeat audio cache : YesMake use of C2 pointers : No
Read offset correction : 667Overread into Lead-In and Lead-Out : NoFill up missing offset samples with silence : YesDelete leading and trailing silent blocks : NoNull samples used in CRC calculations : YesUsed interface : Native Win32 interface for Win NT & 2000Gap handling : Appended to previous track
Used output format : User Defined EncoderSelected bitrate : 1024 kBit/sQuality : HighAdd ID3 tag : NoCommand line compressor : C:\Program Files (x86)\Exact Audio Copy\Flac\flac.exeAdditional command line options : -8 -V -T "ARTIST=%artist%" -T "TITLE=%title%" -T "ALBUM=
%albumtitle%" -T "DATE=%year%" -T "TRACKNUMBER=%tracknr%" -T "GENRE=%genre%" -T "PERFORMER=
%albuminterpret%" -T "COMPOSER=%composer%" %haslyrics%--tag-from-file=LYRICS="%lyricsfile
%"%haslyrics% -T "ALBUMARTIST=%albumartist%" -T "DISCNUMBER=%cdnumber%" -T "TOTALDISCS=
%totalcds%" -T "TOTALTRACKS=%numtracks%" -T "COMMENT=%comment%" %source% -o %dest%
TOC of the extracted CD
Track | Start | Length | Start sector | End sector --------------------------------------------------------- 1 | 0:00.00 | 3:09.53 | 0 | 14227 2 | 3:09.53 | 3:27.35 | 14228 | 29787 3 | 6:37.13 | 4:21.29 | 29788 | 49391 4 | 10:58.42 | 3:40.56 | 49392 | 65947 5 | 14:39.23 | 4:37.71 | 65948 | 86793 6 | 19:17.19 | 4:31.11 | 86794 | 107129 7 | 23:48.30 | 4:14.09 | 107130 | 126188 8 | 28:02.39 | 3:59.35 | 126189 | 144148 9 | 32:01.74 | 3:54.24 | 144149 | 161722 10 | 35:56.23 | 2:35.72 | 161723 | 173419
Track 1
Filename C:\EACRips\Jarkko Ahola - Suojelusenkeli – Joulun klassikot 2\01. Ensimmäinen
joulu.wav
Pre-gap length 0:00:02.00
Peak level 97.7 % Extraction speed 1.0 X Track quality 100.0 % Test CRC 388F4BEA Copy CRC 388F4BEA Track not present in AccurateRip database Copy OK
Track 2
Filename C:\EACRips\Jarkko Ahola - Suojelusenkeli – Joulun klassikot 2\02.
Suojelusenkeli.wav
Peak level 97.0 % Extraction speed 1.0 X Track quality 99.9 % Test CRC 169C199E Copy CRC 169C199E Track not present in AccurateRip database Copy OK
Track 3
Filename C:\EACRips\Jarkko Ahola - Suojelusenkeli – Joulun klassikot 2\03. Oi jouluyö.wav
Peak level 97.0 % Extraction speed 1.3 X Track quality 100.0 % Test CRC F631ADD2 Copy CRC F631ADD2 Track not present in AccurateRip database Copy OK
Track 4
Filename C:\EACRips\Jarkko Ahola - Suojelusenkeli – Joulun klassikot 2\04. On hanget
korkeat, nietokset.wav
Peak level 97.0 % Extraction speed 1.2 X Track quality 99.9 % Test CRC DCA95049 Copy CRC DCA95049 Track not present in AccurateRip database Copy OK
Track 5
Filename C:\EACRips\Jarkko Ahola - Suojelusenkeli – Joulun klassikot 2\05. Halleluja.wav
Peak level 97.0 % Extraction speed 1.5 X Track quality 100.0 % Test CRC A11315DC Copy CRC A11315DC Track not present in AccurateRip database Copy OK
Track 6
Filename C:\EACRips\Jarkko Ahola - Suojelusenkeli – Joulun klassikot 2\06. Senza Luce.wav
Peak level 97.0 % Extraction speed 1.6 X Track quality 100.0 % Test CRC B401677C Copy CRC B401677C Track not present in AccurateRip database Copy OK
Track 7
Filename C:\EACRips\Jarkko Ahola - Suojelusenkeli – Joulun klassikot 2\07. Con te
Partiro.wav
Peak level 97.0 % Extraction speed 1.7 X Track quality 100.0 % Test CRC 9A564A43 Copy CRC 9A564A43 Track not present in AccurateRip database Copy OK
Track 8
Filename C:\EACRips\Jarkko Ahola - Suojelusenkeli – Joulun klassikot 2\08. Cavatina – She
Was Beautiful.wav
Peak level 97.0 % Extraction speed 1.7 X Track quality 100.0 % Test CRC 3DD00234 Copy CRC 3DD00234 Track not present in AccurateRip database Copy OK
Track 9
Filename C:\EACRips\Jarkko Ahola - Suojelusenkeli – Joulun klassikot 2\09. Nuku vaan.wav
Peak level 97.1 % Extraction speed 1.8 X Track quality 100.0 % Test CRC 123F93A5 Copy CRC 123F93A5 Track not present in AccurateRip database Copy OK
Track 10
Filename C:\EACRips\Jarkko Ahola - Suojelusenkeli – Joulun klassikot 2\10. Finlandia.wav
Peak level 97.0 % Extraction speed 1.7 X Track quality 100.0 % Test CRC D45CC913 Copy CRC D45CC913 Track not present in AccurateRip database Copy OK
None of the tracks are present in the AccurateRip database
No errors occurred
End of status report
---- CUETools DB Plugin V2.1.4
[CTDB TOCID: .km.XgkvZun7mZbCeaIENug6WJU-] disk not present in databaseSubmit result: .km.XgkvZun7mZbCeaIENug6WJU- has been uploaded
==== Log checksum 021AEB73B75A956F140CB5BF6CD7AF7502DAFB69C9C3628253560B0550A90B06 ====

Содержание индексной карты (.CUE)

REM GENRE ChristmasREM DATE 2014REM DISCID 8909080AREM COMMENT "ExactAudioCopy v1.0b3"CATALOG 5054196342722PERFORMER "Jarkko Ahola"TITLE "Suojelusenkeli – Joulun klassikot 2"FILE "01. Ensimmäinen joulu.wav" WAVE TRACK 01 AUDIO TITLE "Ensimmäinen joulu" PERFORMER "Jarkko Ahola" ISRC FIWMA1400357 INDEX 01 00:00:00FILE "02. Suojelusenkeli.wav" WAVE TRACK 02 AUDIO TITLE "Suojelusenkeli" PERFORMER "Jarkko Ahola" ISRC FIWMA1400358 INDEX 01 00:00:00FILE "03. Oi jouluyö.wav" WAVE TRACK 03 AUDIO TITLE "Oi jouluyö" PERFORMER "Jarkko Ahola" ISRC FIWMA1400359 INDEX 01 00:00:00FILE "04. On hanget korkeat, nietokset.wav" WAVE TRACK 04 AUDIO TITLE "On hanget korkeat, nietokset" PERFORMER "Jarkko Ahola" ISRC FIWMA1400360 INDEX 01 00:00:00FILE "05. Halleluja.wav" WAVE TRACK 05 AUDIO TITLE "Halleluja" PERFORMER "Jarkko Ahola" ISRC FIWMA1400361 INDEX 01 00:00:00FILE "06. Senza Luce.wav" WAVE TRACK 06 AUDIO TITLE "Senza Luce" PERFORMER "Jarkko Ahola" ISRC FIWMA1400362 INDEX 01 00:00:00FILE "07. Con te Partiro.wav" WAVE TRACK 07 AUDIO TITLE "Con te Partiro" PERFORMER "Jarkko Ahola" ISRC FIWMA1400363 INDEX 01 00:00:00FILE "08. Cavatina – She Was Beautiful.wav" WAVE TRACK 08 AUDIO TITLE "Cavatina – She Was Beautiful" PERFORMER "Jarkko Ahola" ISRC FIWMA1400364 INDEX 01 00:00:00FILE "09. Nuku vaan.wav" WAVE TRACK 09 AUDIO TITLE "Nuku vaan" PERFORMER "Jarkko Ahola" ISRC FIWMA1400365 INDEX 01 00:00:00FILE "10. Finlandia.wav" WAVE TRACK 10 AUDIO TITLE "Finlandia" PERFORMER "Jarkko Ahola" ISRC FIWMA1400366 INDEX 01 00:00:00

Лог проверки качества

PERFORMER: auCDtect Task Manager, ver. 1.6.0 RC1 build 1.6.0.1Copyright (c) 2008-2010 y-soft. All rights reservedhttp://y-soft.org
ANALYZER: auCDtect: CD records authenticity detector, version 0.8.2Copyright (c) 2004 Oleg Berngardt. All rights reserved.Copyright (c) 2004 Alexander Djourik. All rights reserved.
FILE: 10. Finlandia.flac Size: 17161501 Hash: E93CED2A1F6337B7761B2B5E6676C6F3 Accuracy: -m0 Conclusion: CDDA 100% Signature: 76212B3ECF00106EF91A865A6DD81FC006B6035AFILE: 09. Nuku vaan.flac Size: 28327887 Hash: 16F00B4579C7776FCE5CCF3A880859CE Accuracy: -m0 Conclusion: CDDA 99% Signature: 88C7F97CD6F4A8A3E071D125A4ABFD3E2DCABF5DFILE: 08. Cavatina – She Was Beautiful.flac Size: 25751219 Hash: 18277E0749D89DA55C5598E33FEA1C85 Accuracy: -m0 Conclusion: CDDA 100% Signature: F86E2C0A9F5F9E7DDF038B4FD1E6C6C6533D3C85FILE: 07. Con te Partiro.flac Size: 29585141 Hash: 9C16D556533252B48DBEA724408D2791 Accuracy: -m0 Conclusion: CDDA 100% Signature: CBE723CC006D590F6BAFA6768D3ABE6462DF7FD8FILE: 06. Senza Luce.flac Size: 30045859 Hash: 1B070357557851B469F9B9E336763573 Accuracy: -m0 Conclusion: CDDA 100% Signature: F724669CD2AA8260458A786AB248EE468FF3901CFILE: 05. Halleluja.flac Size: 30484770 Hash: 4DEF47C7D4837B8DA8FFABCA5C391CA7 Accuracy: -m0 Conclusion: CDDA 100% Signature: EDF6E59E38C63049B1D1C5F3061121CACDD09FCDFILE: 04. On hanget korkeat, nietokset.flac Size: 23801063 Hash: 5AEF65C122D3EA38E10F24188ACEF895 Accuracy: -m0 Conclusion: CDDA 100% Signature: 3C79C339743B772B82C15D785334883AE2124621FILE: 03. Oi jouluyö.flac Size: 28782762 Hash: 69A4F4198A1A12CE87DA2E4614ED2A48 Accuracy: -m0 Conclusion: CDDA 100% Signature: C687B720F35B1CA9AFA543382E3353ECEC4AEBCBFILE: 02. Suojelusenkeli.flac Size: 20127939 Hash: 4DA75FE8B05C30A7407AD193330269A4 Accuracy: -m0 Conclusion: CDDA 100% Signature: 63962DA83EB49D362FFB30E02BF339B384AF9D09FILE: 01. Ensimmäinen joulu.flac Size: 22106023 Hash: 84D3F1A669095D341E279B0C44D95E61 Accuracy: -m0 Conclusion: CDDA 100% Signature: 12782B78FB7111CDBB9398F545BE1B18DE864B4B
Доп. информация: Самый, самый хэви-металлический вокалист из Terasbetoni, Northern Kings, Ahola, Dreamtale спел на необычном вокально-оркестровом сольном альбоме.

Об исполнителе (группе)

https://en.wikipedia.org/wiki/Jarkko_Ahola
http://www.jahola.com/

Об альбоме (сборнике)

Suojelusenkeli – Joulun klassikot 2 released by Warner Music Finland is out now! The album contains some Christmas carols and other masterpieces from classical music to pop music plus one song written by J himself, all in one stylish package accompanied by Bratislava Symphony Orchestra conducted by David Hernando Rico.
Produced by Janne Huttunen
Recorded by Janne & Miikka Huttunen / Sonic Pump
Mastered by Svane Forsbäck / Chartmakers
Choir conducted by Pasi Hyökki
Arrangements and orchestrations by Pessi Levanto, Janne Huttunen, Vili Robert Ollila and J.Ahola (Nuku vaan)
Musicians:
Samppa Laakso – Organ
Mikko Mäkinen – Grand piano
Mikko Kosonen – Guitar
Mikko Määttä – Bass
Kalle Torniainen – Drums
Sampo Haapaniemi – Snare drum
Janne Huttunen – Hammond, percussion & programming
http://www.jahola.com/suojelusenkeli-joulun-klassikot-2-out-now/



Показать сообщения:    

Текущее время: 10-Дек 17:41

Часовой пояс: UTC + 3


Вы не можете начинать темы
Вы не можете отвечать на сообщения
Вы не можете редактировать свои сообщения
Вы не можете удалять свои сообщения
Вы не можете голосовать в опросах
Вы не можете прикреплять файлы к сообщениям
Вы не можете скачивать файлы