Здравствуй, ночь / Buongiorno, notte / Good Morning, Night (Марко Беллоккьо / Marco Bellocchio) [2003, Италия, драма, DVDRip] MVO


Статистика раздачи [Обновить пиров]
Размер:  745 MB   |    Зарегистрирован:  1 год 1 месяц   |    Скачан:  0 раз

Полного источника не было: Никогда

Личеров:  3  [  0 KB/s  ]   Подробная статистика пиров
 
   
 
 
 

[Цитировать]

Здравствуй, ночь / Buongiorno, notte
Год выпуска: 2003
Страна: Италия
Жанр: драма
Продолжительность: 01:42:20.040 (153501 frames)
Перевод: Профессиональный (многоголосый, закадровый)
Оригинальная аудиодорожка: нет
Русские субтитры: нет
Режиссер: Марко Беллоккьо / Marco Bellocchio
В ролях: Лекс Баркер, Пьер Брис, Мари Верзини, Марио Адорф, Уолтер Барнс, Крис Хоуланд, Ральф Вольтер, Миливойе Попович-Мавид, Дуня Райтер, Никса Стефанини
Описание: Бывший глава итальянского правительства и теперешний председатель национального совета христианско-демократической партии, инициатор со стороны х.-д. "исторического компромисса" с коммунистами, Альдо Моро был похищен утром 16 марта "красными бригадами", когда ехал на своем автомобиле на парламентские дебаты, которые должны были закончиться широкой инвеститурой правительства Д.Андреотти. Его шофер и четыре телохранителя, следовавшие в другом автомобиле, были убиты. В найденных на следующий день автомобилях террористов были обнаружен ручные пулеметы и револьверы советской фабрикации. Фильм основан на подлинной истории похищения бывшего премьер-министра Италии Альдо Моро в 1978 году — преступления, которое ошеломило всю страну. Но в эпоху, когда ячейки террористов и фундаментализм распространяются по всему миру, этот тонкий и умный фильм исследует крах радикальной идеологии и являет собой аллегорию смерти социалистической мечты, которая выходит за рамки итальянского контекста. Ценна и редка позиция автора фильма, который прославляет ценность жизни и скорбит о том, как она тратится впустую по ту сторону морали и права. Это камерный, сложный и масштабный фильм.
Качество: DVDRip
Формат: AVI
Видео кодек: XviD
Аудио кодек: МР3
Видео: 672x384 (1.75:1), 25 fps, XviD build 73 ~880 kbps avg, 0.14 bit/pixel
Аудио: 48 kHz, MPEG Layer 3, 2 ch, ~128.00 kbps avg
Медиаинфо">

Скриншоты Медиаинфо


F:\004 Мои раздачи\Здравствуй ночь 745\zdravstvui_noch_745_[torrents.ru]_by_bm11.avi
General
Complete name : F:\004 Мои раздачи\Здравствуй ночь 745\zdravstvui_noch_745_[torrents.ru]_by_bm11.avi
Format : AVI
Format/Info : Audio Video Interleave
File size : 745 MiB
Duration : 1h 42mn
Overall bit rate : 1 018 Kbps
Director : bm11
Writing application : VirtualDubMod 1.5.10.3 | www.virtualdub-fr.org || (build 2550/release)
Video
Format : MPEG-4 Visual
Format profile : Streaming Video@L1
Format settings, BVOP : Yes
Format settings, QPel : No
Format settings, GMC : No warppoints
Format settings, Matrix : Custom
Codec ID : XVID
Codec ID/Hint : XviD
Duration : 1h 42mn
Bit rate : 881 Kbps
Width : 672 pixels
Height : 384 pixels
Display aspect ratio : 16/9
Frame rate : 25.000 fps
Resolution : 24 bits
Colorimetry : 4:2:0
Scan type : Progressive
Bits/(Pixel*Frame) : 0.137
Stream size : 645 MiB (86%)
Writing library : XviD 73
Audio
Format : MPEG Audio
Format version : Version 1
Format profile : Layer 3
Codec ID : 55
Codec ID/Hint : MP3
Duration : 1h 42mn
Bit rate mode : Constant
Bit rate : 128 Kbps
Minimum bit rate : 128 Kbps
Channel(s) : 2 channels
Sampling rate : 48.0 KHz
Resolution : 16 bits
Stream size : 93.7 MiB (13%)
Alignment : Aligned on interleaves
Interleave, duration : 40 ms (1.00 video frame)
Interleave, preload duration : 504 ms
Writing library : LAME3.99r
Encoding settings : CBR
[teatrix.ru].t9568.torrent 
Торрент: Зарегистрирован [ 2015-10-21 02:20 ] · D4D5E25EE410379EFA3E501A61740C8AE7A3C05C

Скачать .torrent

Скачать

15 KB

Статус: проверено
Скачан: 0 раз
Размер: 745 MB
terms.php



Быстрый ответ

Имя:

      
Для отправки сообщений необходимо включить JavaScript
Показать сообщения:    

Текущее время: 11-Дек 14:59

Часовой пояс: UTC + 3


Вы можете начинать темы
Вы можете отвечать на сообщения
Вы не можете редактировать свои сообщения
Вы не можете удалять свои сообщения
Вы не можете голосовать в опросах
Вы не можете прикреплять файлы к сообщениям
Вы можете скачивать файлы