Здравствуй, ночь / Buongiorno, notte / Good Morning, Night (Марко Беллоккьо / Marco Bellocchio) [2003, Италия, драма, DVDRip] MVO


Статистика раздачи [Обновить пиров]
Размер:  1.46 GB   |    Зарегистрирован:  1 год 1 месяц   |    Скачан:  0 раз

Полного источника не было: Никогда

Личеров:  3  [  0 KB/s  ]   Подробная статистика пиров
 
   
 
 
 

[Цитировать]

Здравствуй, ночь / Buongiorno, notte
Год выпуска: 2003
Жанр: драма
Страна: Италия
Продолжительность: 01:42:20.040
Перевод: Профессиональный (многоголосый, закадровый)
Режиссер: Марко Беллоккьо
В ролях: · Луиджи Ло Каскио
· Майя Санса
· Роберто Херлицка
· Пьер Джорджио Беллоккио
· Джованни Калькано
· Паоло Бригулья
Описание: "Русская Мысль" Париж. 23 марта 1978 года
"Красные бригады"
Бывший глава итальянского правительства и теперешний председатель национального совета христианско-демократической партии, инициатор со стороны х.-д. "исторического компромисса" с коммунистами, Альдо Моро был похищен утром 16 марта "красными бригадами", когда ехал на своем автомобиле на парламентские дебаты, которые должны были закончиться широкой инвеститурой правительства Д.Андреотти. Его шофер и четыре телохранителя, следовавшие в другом автомобиле, были убиты. В найденных на следующий день автомобилях террористов были обнаружен ручные пулеметы и револьверы советской фабрикации.
Фильм основан на подлинной истории похищения бывшего премьер-министра Италии Альдо Моро в 1978 году — преступления, которое ошеломило всю страну. Но в эпоху, когда ячейки террористов и фундаментализм распространяются по всему миру, этот тонкий и умный фильм исследует крах радикальной идеологии и являет собой аллегорию смерти социалистической мечты, которая выходит за рамки итальянского контекста. Ценна и редка позиция автора фильма, который прославляет ценность жизни и скорбит о том, как она тратится впустую по ту сторону морали и права. Это камерный, сложный и масштабный фильм.
"Отправной точкой было показать эту трагедию не саму по себе, а через участников похищения, напрямую связанные с этим событием. Меня интересовало пронаблюдать повседневную жизнь тюремщиков. Их жизнь, почти семейная, со своими повторениями, ритуалом, обыденностью, давала мне почву для воображения. Однако эта банальность, эта трагическая повторяемость действий мне были недостаточны. И тогда возник персонаж женщины, члена Бригад, со всеми ее противоречиями. Через нее стало возможным человеческое общение Моро с его тюремщиками, однако это противоречие не очень нравится террористами", — Марко Беллоккьо.
"Здравствуй, полночь
Я возвращаюсь домой
День устал от меня
Как, возможно, я от него" - Эмили Дикинсон
Название восходит к стихотворению Эмили Дикинсон о мучительности выбора между правильным и неправильным, и это серьезный фильм, который помогает нам проникнуть в образ мышления радикалов-активистов.
Итальянская пресса о фильме
"Очень красивый фильм... кино добивается успеха там, где итальянское общество и политика потерпели поражение... превосходный фильм, наполненный чувством... в фильме "Здравствуй, ночь" передана вся неоднозначность эпохи..."
Доп. информация: Награда "за выдающиеся индивидуальные достижения" Марко Беллоккьо "за лучший сценарий" на 60-м Венецианском кинобиеннале 2003
Приз ФИПРЕССИ Европейской киноакадемии Марко Беллоккьо 2003
"Малый Золотой Лев" Марко Беллоккьо и CinemAvvenire Award Марко Беллоккьо на 60-м Венецианском кинобиеннале 2003
Качество: DVDRip
Видео: 704x400 (1.76:1), 25 fps, XviD build 73 ~1645 kbps avg, 0.23 bit/pixel
Аудио: 48 kHz, AC3 Dolby Digital, 3/2 (L,C,R,l,r) + LFE ch, ~384.00 kbps avg

Скриншоты:

МИ

F:\zdravstvui_noch_1.46_[torrents.ru]_by_filolya.avi
General
Complete name : F:\zdravstvui_noch_1.46_[torrents.ru]_by_filolya.avi
Format : AVI
Format/Info : Audio Video Interleave
File size : 1.46 GiB
Duration : 1h 42mn
Overall bit rate : 2 039 Kbps
Writing application : VirtualDubMod 1.5.10.3 | www.virtualdub-fr.org || (build 2550/release)
Writing library : VirtualDubMod build 2550/release
Video
Format : MPEG-4 Visual
Format profile : Streaming Video@L1
Format settings, BVOP : Yes
Format settings, QPel : No
Format settings, GMC : No warppoints
Format settings, Matrix : Custom
Codec ID : XVID
Codec ID/Hint : XviD
Duration : 1h 42mn
Bit rate : 1 645 Kbps
Width : 704 pixels
Height : 400 pixels
Display aspect ratio : 16/9
Frame rate : 25.000 fps
Resolution : 24 bits
Colorimetry : 4:2:0
Scan type : Progressive
Bits/(Pixel*Frame) : 0.234
Stream size : 1.18 GiB (81%)
Writing library : XviD 73
Audio
Format : AC-3
Format/Info : Audio Coding 3
Codec ID : 2000
Duration : 1h 42mn
Bit rate mode : Constant
Bit rate : 384 Kbps
Channel(s) : 6 channels
Channel positions : Front: L C R, Surround: L R, LFE
Sampling rate : 48.0 KHz
Stream size : 281 MiB (19%)
Alignment : Split accross interleaves
Interleave, duration : 40 ms (1.00 video frame)
Interleave, preload duration : 500 ms
семпл: http://multi-up.com/1072176
20.10.2015 рип переделан. торрент перезалит.
[teatrix.ru].t9569.torrent 
Торрент: Зарегистрирован [ 2015-10-21 02:20 ] · DBA6E8FBEE28DBAD10EA542D6D7015A58F37B457

Скачать .torrent

Скачать

15 KB

Статус: проверено
Скачан: 0 раз
Размер: 1.46 GB
terms.php



Быстрый ответ

Имя:

      
Для отправки сообщений необходимо включить JavaScript
Показать сообщения:    

Текущее время: 11-Дек 01:25

Часовой пояс: UTC + 3


Вы можете начинать темы
Вы можете отвечать на сообщения
Вы не можете редактировать свои сообщения
Вы не можете удалять свои сообщения
Вы не можете голосовать в опросах
Вы не можете прикреплять файлы к сообщениям
Вы можете скачивать файлы