Стюарт: Прошлая жизнь / Stuart: A Life Backwards (Дэвид Эттвуд / David Attwood) (Бенедикт Камбербэтч / Benedict Cumberbatch) [2007, Великобритания, Драма, HDTVRip] MVO (Amedia) + AVO (Сербин) + Original (Eng) + Subs (Rus, Eng)


 

[Цитировать]

Стюарт: Прошлая жизнь / Stuart: A Life Backwards- Год выпуска: 2007
Выпущено: Великобритания / BBC Television Centre, HBO Films
Жанр: драма
Продолжительность: 01:28:02
Перевод (1): Профессиональный (многоголосый закадровый) Amedia
Перевод (2): Авторский (одноголосый закадровый) Юрий Сербин
Cубтитры: Русские (2 вида: М.Рогожкин; вэнс & Dante S), Английские (внешние .srt*)
Оригинальная аудиодорожка: Английская-Режиссер:
Дэвид Эттвуд / David Attwood-В ролях:
Том Харди (Stuart Shorter), Бенедикт Камбербэтч (Alexander Masters), Никола Даффетт (Judith), Клер-Луис Кордуэлл (Karen), Эдна Доре (Gran), Кэндис Нергаард (Sophie), Джоэнна Мод (Ruth), Тревор Селлерс (John), Барбара Барнс (Wintercomfort Secretary), Хью Армстронг (Old Drunk)-Описание:
Экранизация биографии Стюарта Шортера, бездомного алкоголика и наркомана, который выступал против действий полиции в отношении людей, живущих на улице. Был ведущей фигурой в кампании по освобождению Руфи Вайнер и Джона Брока, создателей центра помощи бездомным.-IMDB | КиноПоиск | Сэмпл |-Качество: HDTVRip
Формат: AVI
Видео: 704x400 (1.76:1), 25 fps, XviD build 67 ~1774 kbps avg, 0.25 bit/pixel
Аудио #1: 48 kHz, AC3 Dolby Digital, 2/0 (L,R) ch, ~192.00 kbps avg (MVO) Amedia
Аудио #2: 48 kHz, AC3 Dolby Digital, 2/0 (L,R) ch, ~192.00 kbps avg (AVO) Юрий Сербин
Аудио #3: 48 kHz, AC3 Dolby Digital, 2/0 (L,R) ch, ~192.00 kbps avg (ENG)
-

Скриншоты

MediaInfo

General
Complete name                            : D:\Stuart_Proshlaya_zhizn`_2007_HDTVRip_by_Dalemake.avi
Format                                   : AVI
Format/Info                              : Audio Video Interleave
File size                                : 1.46 GiB
Duration                                 : 1h 28mn
Overall bit rate                         : 2 372 Kbps
Writing application                      : VirtualDubMod 1.5.10.3 | www.virtualdub-fr.org || (build 2550/release)
Writing library                          : VirtualDubMod build 2550/release
Video
ID                                       : 0
Format                                   : MPEG-4 Visual
Format profile                           : Advanced Simple@L5
Format settings, BVOP                    : 2
Format settings, QPel                    : No
Format settings, GMC                     : No warppoints
Format settings, Matrix                  : Custom
Codec ID                                 : XVID
Codec ID/Hint                            : XviD
Duration                                 : 1h 28mn
Bit rate                                 : 1 776 Kbps
Width                                    : 704 pixels
Height                                   : 400 pixels
Display aspect ratio                     : 16:9
Frame rate                               : 25.000 fps
Color space                              : YUV
Chroma subsampling                       : 4:2:0
Bit depth                                : 8 bits
Scan type                                : Progressive
Compression mode                         : Lossy
Bits/(Pixel*Frame)                       : 0.252
Stream size                              : 1.09 GiB (75%)
Writing library                          : XviD 67
Audio #1
ID                                       : 1
Format                                   : AC-3
Format/Info                              : Audio Coding 3
Mode extension                           : CM (complete main)
Format settings, Endianness              : Big
Codec ID                                 : 2000
Duration                                 : 1h 28mn
Bit rate mode                            : Constant
Bit rate                                 : 192 Kbps
Channel(s)                               : 2 channels
Channel positions                        : Front: L R
Sampling rate                            : 48.0 KHz
Bit depth                                : 16 bits
Compression mode                         : Lossy
Stream size                              : 121 MiB (8%)
Alignment                                : Split accross interleaves
Interleave, duration                     : 40 ms (1.00 video frame)
Interleave, preload duration             : 500 ms
Audio #2
ID                                       : 2
Format                                   : AC-3
Format/Info                              : Audio Coding 3
Mode extension                           : CM (complete main)
Format settings, Endianness              : Big
Codec ID                                 : 2000
Duration                                 : 1h 28mn
Bit rate mode                            : Constant
Bit rate                                 : 192 Kbps
Channel(s)                               : 2 channels
Channel positions                        : Front: L R
Sampling rate                            : 48.0 KHz
Bit depth                                : 16 bits
Compression mode                         : Lossy
Stream size                              : 121 MiB (8%)
Alignment                                : Split accross interleaves
Interleave, duration                     : 40 ms (1.00 video frame)
Interleave, preload duration             : 500 ms
Audio #3
ID                                       : 3
Format                                   : AC-3
Format/Info                              : Audio Coding 3
Mode extension                           : CM (complete main)
Format settings, Endianness              : Big
Codec ID                                 : 2000
Duration                                 : 1h 28mn
Bit rate mode                            : Constant
Bit rate                                 : 192 Kbps
Channel(s)                               : 2 channels
Channel positions                        : Front: L R
Sampling rate                            : 48.0 KHz
Bit depth                                : 16 bits
Compression mode                         : Lossy
Stream size                              : 121 MiB (8%)
Alignment                                : Split accross interleaves
Interleave, duration                     : 40 ms (1.00 video frame)
Interleave, preload duration             : 500 ms

-
Перевод Юрия Сербина доступен благодаря: TsarObezian, oleg-k, denis_mgn_1987, olegSoleg, GreatNapalm, chernyg, Pro_Rock_.



Показать сообщения:    

Текущее время: 04-Дек 13:18

Часовой пояс: UTC + 3


Вы не можете начинать темы
Вы не можете отвечать на сообщения
Вы не можете редактировать свои сообщения
Вы не можете удалять свои сообщения
Вы не можете голосовать в опросах
Вы не можете прикреплять файлы к сообщениям
Вы не можете скачивать файлы