(Orchestral) Антон Брукнер / Anton Bruckner - Symphonien Nrn.3 und 6 (Berner Symphonieorchester - Mario Venzago) - 2013, FLAC (image+.cue) lossless


 

[Цитировать]

Anton Bruckner
Symphonien 3 & 6
Berner Symphonieorchester
Mario Venzago-
-
- Жанр: Orchestral
Страна-производитель диска: Germany
Год издания диска: 2013
Издатель (лейбл): CPO
Дата записи: 2011/12
Аудиокодек: FLAC
Тип рипа: image+.cue
Битрейт аудио: lossless
Продолжительность: 54'34'' | 50'32''
Источник: собственный рип
Наличие сканов в содержимом раздачи: да
Треклист:

CD1

[01] Symphonie Nr.3: I. Mehr langsam. Misterioso
[02] II. Adagio, Bewegt. Quasi Andante
[03] III. Scherzo. Ziemlich schnell
[04] IV. Allegro

Лог создания рипа

Exact Audio Copy V1.0 beta 4 from 7. December 2014
EAC extraction logfile from 9. August 2015, 21:49
Berner Symphonieorchester - Mario Venzago / Bruckner 3
Used drive : PHILIPS PCRW804 Adapter: 1 ID: 1
Read mode : SecureUtilize accurate stream : YesDefeat audio cache : YesMake use of C2 pointers : No
Read offset correction : -436Overread into Lead-In and Lead-Out : NoFill up missing offset samples with silence : YesDelete leading and trailing silent blocks : NoNull samples used in CRC calculations : YesUsed interface : Native Win32 interface for Win NT & 2000
Used output format : User Defined EncoderSelected bitrate : 1024 kBit/sQuality : HighAdd ID3 tag : NoCommand line compressor : C:\Program Files (x86)\FLAC\flac.exeAdditional command line options : -T "COMMENT=rip by el coronel" -8 -V %source%
TOC of the extracted CD
Track | Start | Length | Start sector | End sector --------------------------------------------------------- 1 | 0:00.00 | 21:37.52 | 0 | 97326 2 | 21:37.52 | 14:02.15 | 97327 | 160491 3 | 35:39.67 | 7:00.57 | 160492 | 192048 4 | 42:40.49 | 11:53.22 | 192049 | 245545
Range status and errors
Selected range
Filename F:\Music\Bruckner 0-9 Venzago\Bruckner 3 and 6\CD1.wav
Peak level 100.0 % Extraction speed 1.9 X Range quality 100.0 % Test CRC 4F2145A6 Copy CRC 4F2145A6 Copy OK
No errors occurred
AccurateRip summary
Track 1 accurately ripped (confidence 5) [6D8B761B] (AR v2)Track 2 accurately ripped (confidence 5) [9C0BF47C] (AR v2)Track 3 accurately ripped (confidence 5) [604584D3] (AR v2)Track 4 accurately ripped (confidence 5) [3445F66F] (AR v2)
All tracks accurately ripped
End of status report
---- CUETools DB Plugin V2.1.4
[CTDB TOCID: X8PIa3syIcMY9ndrB0kAMSlB224-] foundSubmit result: X8PIa3syIcMY9ndrB0kAMSlB224- has been confirmedTrack | CTDB Status 1 | (2/2) Accurately ripped 2 | (2/2) Accurately ripped 3 | (2/2) Accurately ripped 4 | (2/2) Accurately ripped
==== Log checksum 857AC8F521EA170126D6BC4B66DBB17D2742ADEA80693B9000329FE60AB0AD61 ====

Содержание индексной карты (.CUE)

REM GENRE SymphonieREM DATE 2013REM DISCID 2E0CC904REM COMMENT ExactAudioCopy v1.0b4CATALOG 0761203769025PERFORMER "Berner Symphonieorchester - Mario Venzago"TITLE "Bruckner 3"FILE "CD1.flac" WAVE TRACK 01 AUDIO TITLE "Symphonie Nr.3: I. Mehr langsam. Misterioso" ISRC DEB201169001 INDEX 01 00:00:00 TRACK 02 AUDIO TITLE "II. Adagio, Bewegt. Quasi Andante" ISRC DEB201169001 INDEX 01 21:37:52 TRACK 03 AUDIO TITLE "III. Scherzo. Ziemlich schnell" ISRC DEB201169002 INDEX 01 35:39:67 TRACK 04 AUDIO TITLE "IV. Allegro" ISRC DEB201169003 INDEX 01 42:40:49

CD2

[01] Symphonie Nr.6: I. Majestoso
[02] II. Adagio. Sehr feierlich
[03] III. Scherzo. Nicht schnell
[04] IV. Finale - Bewegt, doch nicht zu schnell

Лог создания рипа

Exact Audio Copy V1.0 beta 4 from 7. December 2014
EAC extraction logfile from 9. August 2015, 22:46
Berner Symphonieorchester - Mario Venzago / Bruckner 6
Used drive : PHILIPS PCRW804 Adapter: 1 ID: 1
Read mode : SecureUtilize accurate stream : YesDefeat audio cache : YesMake use of C2 pointers : No
Read offset correction : -436Overread into Lead-In and Lead-Out : NoFill up missing offset samples with silence : YesDelete leading and trailing silent blocks : NoNull samples used in CRC calculations : YesUsed interface : Native Win32 interface for Win NT & 2000
Used output format : User Defined EncoderSelected bitrate : 1024 kBit/sQuality : HighAdd ID3 tag : NoCommand line compressor : C:\Program Files (x86)\FLAC\flac.exeAdditional command line options : -T "COMMENT=rip by el coronel" -8 -V %source%
TOC of the extracted CD
Track | Start | Length | Start sector | End sector --------------------------------------------------------- 1 | 0:00.00 | 14:08.34 | 0 | 63633 2 | 14:08.34 | 14:25.48 | 63634 | 128556 3 | 28:34.07 | 7:44.04 | 128557 | 163360 4 | 36:18.11 | 14:13.69 | 163361 | 227404
Range status and errors
Selected range
Filename F:\Music\Bruckner 0-9 Venzago\Bruckner 3 and 6\CD2.wav
Peak level 97.6 % Extraction speed 1.9 X Range quality 100.0 % Test CRC F2D15499 Copy CRC F2D15499 Copy OK
No errors occurred
AccurateRip summary
Track 1 accurately ripped (confidence 5) [5C6A6F4E] (AR v2)Track 2 accurately ripped (confidence 5) [FFE995D8] (AR v2)Track 3 accurately ripped (confidence 5) [34F72982] (AR v2)Track 4 accurately ripped (confidence 5) [D8640452] (AR v2)
All tracks accurately ripped
End of status report
---- CUETools DB Plugin V2.1.4
[CTDB TOCID: NSA.T0R3MdMYAqXOW3ff4M0XwgM-] foundSubmit result: NSA.T0R3MdMYAqXOW3ff4M0XwgM- has been confirmedTrack | CTDB Status 1 | (2/2) Accurately ripped 2 | (2/2) Accurately ripped 3 | (2/2) Accurately ripped 4 | (2/2) Accurately ripped
==== Log checksum 9664E8D35A382816BEF70B14F275E4DA7BA1976A574C5FC1C74DCD4AC32ADB54 ====

Содержание индексной карты (.CUE)

REM GENRE SymphonieREM DATE 2013REM DISCID 290BD804REM COMMENT ExactAudioCopy v1.0b4CATALOG 0761203769025PERFORMER "Berner Symphonieorchester - Mario Venzago"TITLE "Bruckner 6"FILE "CD2.flac" WAVE TRACK 01 AUDIO TITLE "Symphonie Nr.6: I. Majestoso" ISRC DEB201169005 INDEX 01 00:00:00 TRACK 02 AUDIO TITLE "II. Adagio. Sehr feierlich" ISRC DEB201169005 INDEX 01 14:08:34 TRACK 03 AUDIO TITLE "III. Scherzo. Nicht schnell" ISRC DEB201169006 INDEX 01 28:34:07 TRACK 04 AUDIO TITLE "IV. Finale - Bewegt, doch nicht zu schnell" ISRC DEB201169007 INDEX 01 36:18:11
Исполнители:
Berner Symphonieorchester - Mario Venzago



Показать сообщения:    

Текущее время: 03-Дек 09:48

Часовой пояс: UTC + 3


Вы не можете начинать темы
Вы не можете отвечать на сообщения
Вы не можете редактировать свои сообщения
Вы не можете удалять свои сообщения
Вы не можете голосовать в опросах
Вы не можете прикреплять файлы к сообщениям
Вы не можете скачивать файлы