(Classical) Отторино Респиги / Ottorino Respighi - Metamorphoseon; Ballata delle gnomidi; Belkis, Regina di Saba - Orchestre Philharmonique Royal de Liege, John Neschling - 2015, FLAC (image+.cue) lossless


 

[Цитировать]

Ottorino Respighi - Metamorphoseon; Ballata delle gnomidi; Belkis, Regina di Saba - Orchestre Philharmonique Royal de Liège, John Neschling
Жанр: Classical
Страна-производитель диска: Sweden
Год издания диска: 2015
Издатель (лейбл): BIS
Номер по каталогу: BIS-SACD-2130
Дата записи: 2014
Аудиокодек: FLAC
Тип рипа: image+.cue
Битрейт аудио: lossless
Продолжительность: 72:15
Источник: собственный рип
Наличие сканов в содержимом раздачи: да
Треклист:
Ottorino Respighi (1879–1936)
[1]-[13] Metamorphoseon (1930)
Modi XII – Tema e Variazioni
[14] Ballata delle gnomidi (1920)
[15]-[18] Belkis, Regina di Saba (1934)
Suite for orchestra, from the ballet of the same name
Исполнители:
Orchestre Philharmonique Royal de Liège
John Neschling

Лог создания рипа

Exact Audio Copy V1.1 from 23. June 2015
EAC extraction logfile from 10. October 2015, 21:02
Orchestre Philharmonique Royal de Liège, John Neschling / Respighi - Metamorphoseon
Used drive : HL-DT-STDVDRAM GU70N Adapter: 1 ID: 0
Read mode : SecureUtilize accurate stream : YesDefeat audio cache : YesMake use of C2 pointers : No
Read offset correction : 48Overread into Lead-In and Lead-Out : NoFill up missing offset samples with silence : YesDelete leading and trailing silent blocks : NoNull samples used in CRC calculations : YesUsed interface : Native Win32 interface for Win NT & 2000
Used output format : User Defined EncoderSelected bitrate : 128 kBit/sQuality : HighAdd ID3 tag : NoCommand line compressor : C:\Program Files (x86)\Exact Audio Copy\Flac\flac.exeAdditional command line options : -V -8 -T "Date=%year%" -T "Genre=%genre%" %source%
TOC of the extracted CD
Track | Start | Length | Start sector | End sector --------------------------------------------------------- 1 | 0:00.00 | 2:20.34 | 0 | 10533 2 | 2:20.34 | 2:11.03 | 10534 | 20361 3 | 4:31.37 | 1:41.49 | 20362 | 27985 4 | 6:13.11 | 2:25.56 | 27986 | 38916 5 | 8:38.67 | 3:12.03 | 38917 | 53319 6 | 11:50.70 | 0:40.58 | 53320 | 56377 7 | 12:31.53 | 0:53.26 | 56378 | 60378 8 | 13:25.04 | 7:20.16 | 60379 | 93394 9 | 20:45.20 | 1:24.07 | 93395 | 99701 10 | 22:09.27 | 3:03.07 | 99702 | 113433 11 | 25:12.34 | 0:42.40 | 113434 | 116623 12 | 25:54.74 | 0:53.69 | 116624 | 120667 13 | 26:48.68 | 2:44.10 | 120668 | 132977 14 | 29:33.03 | 16:53.06 | 132978 | 208958 15 | 46:26.09 | 8:36.63 | 208959 | 247721 16 | 55:02.72 | 7:53.56 | 247722 | 283252 17 | 62:56.53 | 2:50.33 | 283253 | 296035 18 | 65:47.11 | 6:27.65 | 296036 | 325125
Range status and errors
Selected range
Filename C:\temp\BIS-SACD-2130 - Respighi - Metamorphoseon\Respighi - Metamorphoseon.wav
Peak level 97.2 % Extraction speed 2.3 X Range quality 100.0 % Test CRC B8C2B7F1 Copy CRC B8C2B7F1 Copy OK
No errors occurred
AccurateRip summary
Track 1 not present in databaseTrack 2 not present in databaseTrack 3 not present in databaseTrack 4 not present in databaseTrack 5 not present in databaseTrack 6 not present in databaseTrack 7 not present in databaseTrack 8 not present in databaseTrack 9 not present in databaseTrack 10 not present in databaseTrack 11 not present in databaseTrack 12 not present in databaseTrack 13 not present in databaseTrack 14 not present in databaseTrack 15 not present in databaseTrack 16 not present in databaseTrack 17 not present in databaseTrack 18 not present in database
None of the tracks are present in the AccurateRip database
End of status report
==== Log checksum 6636E5169656026008891110165CEADF48189C856E89BAAB533A9F1B25CB3385 ====



Показать сообщения:    

Текущее время: 09-Дек 18:29

Часовой пояс: UTC + 3


Вы не можете начинать темы
Вы не можете отвечать на сообщения
Вы не можете редактировать свои сообщения
Вы не можете удалять свои сообщения
Вы не можете голосовать в опросах
Вы не можете прикреплять файлы к сообщениям
Вы не можете скачивать файлы