Кош ба кош / Kosh ba kosh (Бахтиер Худойназаров) [1993, Таджикистан, Швейцария, Германия, Россия, Япония, драма, DVDRip]


Статистика раздачи [Обновить пиров]
Размер:  1.45 GB   |    Зарегистрирован:  1 год 1 месяц   |    Скачан:  0 раз

Полного источника не было: Никогда

Личеров:  4  [  0 KB/s  ]   Подробная статистика пиров
 
   
 
 
 

[Цитировать]

Кош ба кош / Kosh ba kosh
Страна: Таджикистан, Швейцария, Германия, Россия, Япония
Жанр: драма
Год выпуска: 1993
Продолжительность: 01:31:31
Перевод: Не требуется
Cубтитры: нет

Режиссер: Бахтиер Худойназаров
В ролях: Паулина Гальвес, Далер Маджидов, А. Касимов, Боходур Дурабаев, Албарджи Бахирова, Наби Бекмурадов, Раджаб Хуссейнов, Зийзиддин Нуров, Таджибек Шукрихудоев, Евгения Сидорова
Описание: «Кош ба кош» — в древней игре в кости это означает «давай переиграем». Ибрагим проиграл в карты все свое имущество. Бандиты, пришедшие получать долг, решили, что дочь Ибрагима попадает в разряд имущества. Если через 7 дней Ибрагим не отдаст деньги, то лишится дочери. На это время девушку забирает Далер, молодой симпатичный парень. Так начинается история их любви…
Качество видео: DVDRip - DVD5
Формат видео: AVI
Видео: 608x480 (1.27:1), 25 fps, XviD build 73 ~2008 kbps avg, 0.28 bit/pixel
Аудио: 48 kHz, AC3 Dolby Digital, 2/0 (L,R) ch, ~256 kbps

MediaInfo

Общее
Полное имя : H:\Кош.ба.кош.1993.dvdrp_[1.46]_[teko].avi
Формат : AVI
Формат/Информация : Audio Video Interleave
Размер файла : 1,45 Гбайт
Продолжительность : 1 ч. 31 м.
Общий поток : 2274 Кбит/сек
Программа кодирования : VirtualDubMod 1.5.10.3 | www.virtualdub-fr.org || (build 2550/release)
Библиотека кодирования : VirtualDubMod build 2550/release
Видео
Идентификатор : 0
Формат : MPEG-4 Visual
Профиль формата : Advanced Simple@L5
Параметр BVOP формата : 1
Параметр QPel формата : Нет
Параметр GMC формата : Без точки перехода
Параметр матрицы формата : Выборочная
Идентификатор кодека : XVID
Идентификатор кодека/Подсказка : XviD
Продолжительность : 1 ч. 31 м.
Битрейт : 2008 Кбит/сек
Ширина : 608 пикселей
Высота : 480 пикселей
Соотношение сторон : 5:4
Частота кадров : 25,000 кадров/сек
Цветовое пространство : YUV
Субдискретизация насыщенности : 4:2:0
Битовая глубина : 8 бит
Тип развёртки : Прогрессивная
Метод сжатия : С потерями
Бит/(Пиксели*Кадры) : 0.275
Размер потока : 1,28 Гбайт (88%)
Библиотека кодирования : XviD 73
Аудио
Идентификатор : 1
Формат : AC-3
Формат/Информация : Audio Coding 3
Расширение режима : CM (complete main)
Параметр Endianness формата : Big
Идентификатор кодека : 2000
Продолжительность : 1 ч. 31 м.
Вид битрейта : Постоянный
Битрейт : 256 Кбит/сек
Каналы : 2 канала
Расположение каналов : Front: L R
Частота : 48,0 КГц
Битовая глубина : 16 бит
Метод сжатия : С потерями
Размер потока : 168 Мбайт (11%)
Выравнивание : Разделение по промежуткам
Продолжительность промежутка : 40 мс. (1,00 видеокадр)
Время предзагрузки промежутка : 500 мс.
[teatrix.ru].t9577.torrent 
Торрент: Зарегистрирован [ 2015-10-21 18:55 ] · 4935D33B1391BCC6CD59C61E749F0B7D67756432

Скачать .torrent

Скачать

15 KB

Статус: проверено
Скачан: 0 раз
Размер: 1.45 GB
terms.php



Быстрый ответ

Имя:

      
Для отправки сообщений необходимо включить JavaScript
Показать сообщения:    

Текущее время: 08-Дек 14:59

Часовой пояс: UTC + 3


Вы можете начинать темы
Вы можете отвечать на сообщения
Вы не можете редактировать свои сообщения
Вы не можете удалять свои сообщения
Вы не можете голосовать в опросах
Вы не можете прикреплять файлы к сообщениям
Вы можете скачивать файлы