CARNEGIE HALL 2015 - Линдберг - Vivo / Чайковский- соч.23; Op. 72 No. 5 / Равель - Дафнис и Хлоя (Alan Gilbert - music director, conductor; Evgeny Kissin - piano)[2015, Concert, HDTVRip, 720p] medici.tv


Статистика раздачи [Обновить пиров]
Размер:  1.82 GB   |    Зарегистрирован:  1 год 1 месяц   |    Скачан:  0 раз

Полного источника не было: Никогда

Личеров:  3  [  0 KB/s  ]   Подробная статистика пиров
 
   
 
 
 

[Цитировать]

CARNEGIE HALL 2015 - Линдберг - «Vivo»; Чайковский- соч.23; Op. 72
No. 5; Равель - «Дафнис и Хлоя» (Alan Gilbert - music director, conductor; Evgeny Kissin (Евгений Кисин) - piano)

Год выпуска: 8 октября 2015 г. 2015 Stern Auditorium / Perelman Stage at Carnegie Hall (New York, США)
Лейбл: MUSEEC/medici.tv
Страна-производитель: (New York, США), Stern Auditorium / Perelman Stage at Carnegie Hall (New York, США)
Жанр: Concert
Продолжительность: 1 ч. 26 м.
Исполнители: Alan Gilbert - music director, conductor; Evgeny Kissin - piano, Нью-Йоркский филармонический оркестра.
Треклист:
Magnus Lindberg
«Vivo» (мировая премьера, заказ Карнеги-холла)
ПЕТР ИЛЬИЧ ЧАЙКОВСКИЙ (1840 - 1893)
Концерт для фортепиано с оркестром №1, си-бемоль минор, соч.23
18 Meditations, Op. 72 No. 5 Méditation
МОРИС РАВЕЛЬ Joseph Maurice Ravel (1875 - 1937)
«Дафнис и Хлоя», сюита для оркестра № 2 - Danse générale
Данное видео также еще доступно для просмотра на сайте медичи без ограничений
Описание:
По случаю торжественного открытия 125-го сезона Карнеги-холла: невероятный концерт, на котором состоится мировая премьера в исполнении Нью-Йоркского филармонического оркестра под управлением Алана Гилберта и виртуоза Евгения Кисина.
Этот концерт по случаю открытия нового сезона запомнится нам надолго. Карнеги-холл заказал произведение у финского композитора Магнуса Линдберга – «Vivo», которое прозвучит этим вечером в мировой премьере. Магнус Линдберг был раньше композитором при Нью-Йоркском филармоническом оркестре в программе Мари-Жозе Крэвис. Произведение «Vivo» (с подназванием «Концерт открытия для оркестра») отдает должное симфонической пьесе «Дафнис и Хлоя» Равеля (Симфония также включена в программу вечера).
Далее к Нью-Йоркскому филармоническому оркестру присоединится Евгений Кисин, они исполнят Концерт № 1 П. И. Чайковского. Концерт был написан в 1875 году и переработан в 1889 году и посвящался знаменитому виртуозу Николаю Рубинштейну, его близкому другу. Однако пианисту не понравился Концерт, тогда Чайковский изменил посвящение. В ответ Чайковский заявил: «Я не изменю ни единой ноты... ». Но невероятный успех перед публикой заставил Рубинштейна поменять свое отрицательное мнение о Концерте, став неотъемлемой частью его репертуара. В этот вечер Кисин последует по его стопам.
Нью-Йоркский филармонический оркестр закончит концерт Сюитой № 2 из балета «Дафнис и Хлоя» Равеля.
Orchestra Roster
Качество видео: HDTVRip
Формат/Контейнер: FLV
Видео кодек: H.264
Аудио кодек: AAC
Видео поток: 1280x720, 2850 Кбит/сек, 25,000 кадров/сек, Прогрессивная
Аудио поток: AAC, 157 Кбит/сек, 48,0 КГц, 2 канала

MediaInfo

Полное имя : D:\MEDICHI\Alan Gilbert,Evgeny Kissin - Ravel, Tchaikovsky - CARNEGIE HALL 2015\Alan Gilbert,Evgeny Kissin - Ravel, Tchaikovsky - CARNEGIE HALL 2015.FLV
Формат : Flash Video
Размер файла : 1,82 Гбайт
Продолжительность : 1 ч. 26 м.
Общий поток : 3018 Кбит/сек
Видео
Формат : AVC
Формат/Информация : Advanced Video Codec
Профиль формата : Main@L3.1
Параметр CABAC формата : Да
Параметр ReFrames формата : 3 кадра
Идентификатор кодека : 7
Продолжительность : 1 ч. 26 м.
Вид битрейта : Постоянный
Битрейт : 2850 Кбит/сек
Ширина : 1280 пикселей
Высота : 720 пикселей
Соотношение сторон : 16:9
Режим частоты кадров : Постоянный
Частота кадров : 25,000 кадров/сек
Цветовое пространство : YUV
Субдискретизация насыщенности : 4:2:0
Битовая глубина : 8 бит
Тип развёртки : Прогрессивная
Бит/(Пиксели*Кадры) : 0.124
Размер потока : 1,72 Гбайт (94%)
Аудио
Формат : AAC
Формат/Информация : Advanced Audio Codec
Профиль формата : LC
Идентификатор кодека : 10
Продолжительность : 1 ч. 26 м.
Битрейт : 157 Кбит/сек
Каналы : 2 канала
Расположение каналов : Front: L R
Частота : 48,0 КГц
Метод сжатия : С потерями
Размер потока : 97,3 Мбайт (5%)

Скриншоты

[teatrix.ru].t9579.torrent 
Торрент: Зарегистрирован [ 2015-10-21 23:05 ] · 55ABFF1648FD97D6A6A83BC4F40485DF6C11111C

Скачать .torrent

Скачать

19 KB

Статус: проверено
Скачан: 0 раз
Размер: 1.82 GB
terms.php



Быстрый ответ

Имя:

      
Для отправки сообщений необходимо включить JavaScript
Показать сообщения:    

Текущее время: 07-Дек 23:18

Часовой пояс: UTC + 3


Вы можете начинать темы
Вы можете отвечать на сообщения
Вы не можете редактировать свои сообщения
Вы не можете удалять свои сообщения
Вы не можете голосовать в опросах
Вы не можете прикреплять файлы к сообщениям
Вы можете скачивать файлы