Кружевница / La Dentellière (Клод Горетта /Claude Goretta) [1977, Франция-Швейцария-ФРГ, Мелодрама, DVDRip] Dub (к/ст. им. Горького)


Статистика раздачи [Обновить пиров]
Размер:  954 MB   |    Зарегистрирован:  1 год 1 месяц   |    Скачан:  0 раз

Полного источника не было: Никогда

Личеров:  3  [  0 KB/s  ]   Подробная статистика пиров
 
   
 
 
 

[Цитировать]

Кружевница / La Dentellière
Страна: Франция-Швейцария-ФРГ
Жанр: Мелодрама
Год выпуска: 1977
Продолжительность: 01:37:06
Перевод: Профессиональный (дублированный) к/ст. им. Горького
Cубтитры: нет
Режиссер: Клод Горетта /Claude Goretta
В ролях: Изабель Юппер /Isabelle Huppert/, Ив Бенейтон /Yves Beneyton /, Флоранс Жоржетти /Florence Giorgetti/, Аннемари Дюрингер /Annemarie Düringer/, Рената Шротер /Renate Schroeter/, Мишель де Ре /Michel de Ré/
Описание: Помм, 19-летняя ученица-парикмахерша в салоне красоты, - тихая, скромная, малообщительная девушка. Поехав с подругой в Нормандию во время летних каникул, она знакомится с Франсуа, студентом-интеллектуалом из среднего класса, который воплощает для не первую любовь и которому она безраздельно вручает свою незатейливую жизнь. Но вскоре окажется, что у них едва ли есть что-то общее, и будущего у этого случайного романа также не может быть. Но настанет день и Франсуа еще вспомнит бедную девушку, чью тайну так и не смог раскрыть.
Доп. информация: Раздаваемый вариант фильма соответствует советской прокатной копии
Дубляж предоставлен Sergio Leone
Релиз: Арт Хаус
Синхронизация звука: dsz
Сэмпл: https://yadi.sk/i/Ag9y99x7juUHQ
Качество видео: DVDRip
Формат видео: AVI
Видео: 640x384 (1.67:1), 25 fps, XviD 1.1 beta 2 (build 39) ~1235 kbps avg, 0.20 bit/pixel
Аудио: Audio: 44.100 kHz, MPEG Layer 3, 2 ch, ~128.00 kbps avg

MediaInfo

General
Complete name : C:\Users\User\Desktop\двд\kruzheva.avi
Format : AVI
Format/Info : Audio Video Interleave
File size : 954 MiB
Duration : 1h 37mn
Overall bit rate : 1 373 Kbps
Writing application : VirtualDubMod 1.5.10.2 (build 2540/release)
Writing library : VirtualDubMod build 2540/release
Video
ID : 0
Format : MPEG-4 Visual
Format profile : Advanced Simple@L5
Format settings, BVOP : 1
Format settings, QPel : No
Format settings, GMC : No warppoints
Format settings, Matrix : Custom
Codec ID : XVID
Codec ID/Hint : XviD
Duration : 1h 37mn
Bit rate : 1 235 Kbps
Width : 640 pixels
Height : 384 pixels
Display aspect ratio : 5:3
Frame rate : 25.000 fps
Color space : YUV
Chroma subsampling : 4:2:0
Bit depth : 8 bits
Scan type : Progressive
Compression mode : Lossy
Bits/(Pixel*Frame) : 0.201
Stream size : 858 MiB (90%)
Writing library : XviD 1.1.0 Beta2 (UTC 2005-04-04)
Audio
ID : 1
Format : MPEG Audio
Format version : Version 1
Format profile : Layer 3
Mode : Joint stereo
Mode extension : MS Stereo
Codec ID : 55
Codec ID/Hint : MP3
Duration : 1h 37mn
Bit rate mode : Constant
Bit rate : 128 Kbps
Channel(s) : 2 channels
Sampling rate : 44.1 KHz
Compression mode : Lossy
Stream size : 88.9 MiB (9%)
Alignment : Split accross interleaves
Interleave, duration : 40 ms (1.00 video frame)
Interleave, preload duratio : 500 ms

Скриншот c названием фильма

Скриншоты

[teatrix.ru].t9581.torrent 
Торрент: Зарегистрирован [ 2015-10-22 01:35 ] · FA2C0CDBAAD31B89C668B5B4D0023DA1FA8C812B

Скачать .torrent

Скачать

19 KB

Статус: проверено
Скачан: 0 раз
Размер: 954 MB
terms.php



Быстрый ответ

Имя:

      
Для отправки сообщений необходимо включить JavaScript
Показать сообщения:    

Текущее время: 09-Дек 04:56

Часовой пояс: UTC + 3


Вы можете начинать темы
Вы можете отвечать на сообщения
Вы не можете редактировать свои сообщения
Вы не можете удалять свои сообщения
Вы не можете голосовать в опросах
Вы не можете прикреплять файлы к сообщениям
Вы можете скачивать файлы