(Классическая) Pyotr Tchaikovsky - The Sleeping Beauty (Royal Concertgebouw Orchestra - Antal Dorati) - (Петр Чайковский - Спящая Красавица) - 1995, APE (image+.cue), lossless


 

[Цитировать]

Pyotr Tchaikovsky - The Sleeping Beauty (Royal Concertgebouw Orchestra - Antal Dorati) - (Петр Чайковский - Спящая Красавица)
Жанр: Классическая
Год выпуска диска: 1995
Производитель диска: Germany
Аудио кодек: APE
Тип рипа: image+.cue
Битрейт аудио: lossless
Продолжительность: 2:35:51
Петр Ильич Чайковский

Треклист

Disc 1 - 1:18:29
01. Introduction
02. Prologue, 1. Marche
03. Prologue, 2. Scene dansante
04. Prologue, 3. Pas de six
05. Prologue, 3. Variations I-VI - Coda
06. Prologue, 4. Final
07. Act 1, Scene
08. Act 1, Valse
09. Act 1, Scene
10. Act 1, Pas d'action
11. Act 1, Danse des demoiselles d'honneur et des pages
12. Act 1, Variation d'Aurore
13. Act 1, Coda
14. Act 1, Final
15. Act 2, Entracte et scene
16. Act 2, Colin - maillard
17. Act 2, Scene
18. Act 2, Farandole
Disk 2 - 1:17:31
01. Act 2, 14. Scene
02. Act 2, 15. Pas d'action
03. Act 2, Variation d'Aurore
04. Act 2, Coda
05. Act 2, 16. Scene
06. Act 2, 17. Panorama
07. Act 2, 19. Entracte symphonique
08. Act 2, 20. Final
09. Act 3, 21. Marche
10. Act 3, 22. Polacca
11. Act 3, 23. Pas de quatre
12. Act 3, Variations I-IV Coda
13. Act 3, 24. Pas de caractere
14. Act 3, 25. Pas de quatre
15. Act 3, Variations I-II Coda
16. Act 3, 26. Pas de caractere
17. Act 3, Cendrillon et le prince Fortune
18. Act 3, 27. Pas berrichon
28. Pas de deux
19. Act 3, Entree
20. Act 3, Adagio
21. Act 3, 28. Variations I-II Coda
22. Act 3, 29. Sarabande
23. Act 3, 30. Final
24. Act 3, Apotheose

LOG Files CD1

Exact Audio Copy V0.99 prebeta 4 from 23. January 2008
Отчёт EAC об извлечении, выполненном 21. мая 2010, 0:46
Tchaikovsky, Piotr Ilyich / Tchaikovsky, Sleeping Beauty (Disc1)
Дисковод: TEAC DW-224E-A Adapter: 1 ID: 0
Режим чтения : Достоверность
Использование точного потока : Да
Отключение кэша аудио : Да
Использование указателей C2 : Нет
Коррекция смещения при чтении : 102
Способность читать области Lead-in и Lead-out : Нет
Заполнение пропущенных сэмплов тишиной : Да
Удаление блоков с тишиной в начале и конце : Нет
При вычислениях CRC использовались нулевые сэмплы : Да
Интерфейс : Встроенный Win32-интерфейс для Win NT/2000
Выходной формат : Внутренние WAV-операции
Формат сэмплов : 44.100 Гц; 16 бит; стерео
TOC извлечённого CD
Трек | Старт | Длительность | Начальный сектор | Конечный сектор
---------------------------------------------------------------------
1 | 0:00.32 | 3:03.33 | 32 | 13789
2 | 3:03.65 | 4:49.42 | 13790 | 35506
3 | 7:53.32 | 3:52.00 | 35507 | 52906
4 | 11:45.32 | 4:06.00 | 52907 | 71356
5 | 15:51.32 | 6:31.00 | 71357 | 100681
6 | 22:22.32 | 9:14.00 | 100682 | 142231
7 | 31:36.32 | 7:28.38 | 142232 | 175869
8 | 39:04.70 | 4:41.37 | 175870 | 196981
9 | 43:46.32 | 2:05.00 | 196982 | 206356
10 | 45:51.32 | 5:54.38 | 206357 | 232944
11 | 51:45.70 | 2:03.32 | 232945 | 242201
12 | 53:49.27 | 3:16.05 | 242202 | 256906
13 | 57:05.32 | 2:28.53 | 256907 | 268059
14 | 59:34.10 | 7:58.22 | 268060 | 303931
15 | 67:32.32 | 3:10.18 | 303932 | 318199
16 | 70:42.50 | 1:48.57 | 318200 | 326356
17 | 72:31.32 | 4:16.38 | 326357 | 345594
18 | 76:47.70 | 1:41.37 | 345595 | 353206
Характеристики диапазона извлечения и сообщения об ошибках
Выбранный диапазон
Имя файла D:\Temp\Sleeping cd1\Tchaikovsky, Piotr Ilyich - Tchaikovsky, Sleeping Beauty (Disc1).wav
Пиковый уровень 97.7 %
Качество диапазона 100.0 %
CRC копии 52B72456
Копирование... OK
Ошибок не произошло
Конец отчёта

LOG Files CD 2

Exact Audio Copy V0.99 prebeta 4 from 23. January 2008
Отчёт EAC об извлечении, выполненном 21. мая 2010, 1:08
Tchaikovsky, Piotr Ilyich / Sleeping Beauty, (Royal Concertgebouw Orchestra, Antal Dorati, 1981) (Disk 2)
Дисковод: TEAC DW-224E-A Adapter: 1 ID: 0
Режим чтения : Достоверность
Использование точного потока : Да
Отключение кэша аудио : Да
Использование указателей C2 : Нет
Коррекция смещения при чтении : 102
Способность читать области Lead-in и Lead-out : Нет
Заполнение пропущенных сэмплов тишиной : Да
Удаление блоков с тишиной в начале и конце : Нет
При вычислениях CRC использовались нулевые сэмплы : Да
Интерфейс : Встроенный Win32-интерфейс для Win NT/2000
Выходной формат : Внутренние WAV-операции
Формат сэмплов : 44.100 Гц; 16 бит; стерео
TOC извлечённого CD
Трек | Старт | Длительность | Начальный сектор | Конечный сектор
---------------------------------------------------------------------
1 | 0:00.33 | 5:48.32 | 33 | 26164
2 | 5:48.65 | 4:31.43 | 26165 | 46532
3 | 10:20.33 | 1:12.00 | 46533 | 51932
4 | 11:32.33 | 1:19.10 | 51933 | 57867
5 | 12:51.43 | 0:50.40 | 57868 | 61657
6 | 13:42.08 | 2:35.25 | 61658 | 73307
7 | 16:17.33 | 8:53.00 | 73308 | 113282
8 | 25:10.33 | 3:10.00 | 113283 | 127532
9 | 28:20.33 | 4:15.37 | 127533 | 146694
10 | 32:35.70 | 4:48.38 | 146695 | 168332
11 | 37:24.33 | 1:48.17 | 168333 | 176449
12 | 39:12.50 | 4:32.58 | 176450 | 196907
13 | 43:45.33 | 1:48.00 | 196908 | 205007
14 | 45:33.33 | 1:59.00 | 205008 | 213932
15 | 47:32.33 | 3:19.00 | 213933 | 228857
16 | 50:51.33 | 1:23.55 | 228858 | 235137
17 | 52:15.13 | 2:40.20 | 235138 | 247157
18 | 54:55.33 | 1:11.37 | 247158 | 252519
19 | 56:06.70 | 1:35.38 | 252520 | 259682
20 | 57:42.33 | 4:09.37 | 259683 | 278394
21 | 61:51.70 | 4:32.38 | 278395 | 298832
22 | 66:24.33 | 2:06.00 | 298833 | 308282
23 | 68:30.33 | 5:53.12 | 308283 | 334769
24 | 74:23.45 | 3:07.63 | 334770 | 348857
Характеристики диапазона извлечения и сообщения об ошибках
Выбранный диапазон
Имя файла D:\Temp\Sleeping cd2\Tchaikovsky, Piotr Ilyich - Sleeping Beauty, (Royal Concertgebouw Orchestra, Antal Dorati, 1981) (Disk 2).wav
Пиковый уровень 97.7 %
Качество диапазона 100.0 %
CRC копии 672374D1
Копирование... OK
Ошибок не произошло
Конец отчёта

Доп Инфо

The Sleeping Beauty, Op. 66 - Peter Ilyich Tchaikovsky
Royal Concertgebouw Orchestra
Theo Olof - solo violin
Jean Decroos - solo cello
Antal Dorati - conductor
Запись 1981г.



Показать сообщения:    

Текущее время: 04-Дек 02:54

Часовой пояс: UTC + 3


Вы не можете начинать темы
Вы не можете отвечать на сообщения
Вы не можете редактировать свои сообщения
Вы не можете удалять свои сообщения
Вы не можете голосовать в опросах
Вы не можете прикреплять файлы к сообщениям
Вы не можете скачивать файлы