(Opera) Римский-Корсаков - Майская ночь / Rimsky-Korsakov - Maynight (Маторин, Богачёв, Борисова, Ерастова - Kolner Rundfunkchor & Sinfonieorchester, Лазарев) - 1997, APE (image+.cue) lossless


 

[Цитировать]

Nicolai Rimsky-Korsakov - Maynight
Жанр: Opera
Страна-производитель диска: Germany
Год издания диска: 1997
Издатель (лейбл): Capriccio
Номер по каталогу: 10 792/93
Дата записи: 1994
Аудиокодек: APE
Тип рипа: image+.cue
Битрейт аудио: lossless
Продолжительность: 52'33+70'47
Источник: собственный рип
Наличие сканов в содержимом раздачи: да
Треклист:

CD1

1. Ouvertüre
2. Act 1, No. 1 Reigen: A my proso sejali, sejali!
3. No. 2 Lied: Solnyshko nizko, vecher uzh blizko
4. No. 3 Duett: Ne spish' ty, gordaja divchina!
5. No. 4 Erzählung: Davno eto bylo. Zhil sotnik y tom dome
6. No. 5 Rezitativ und Pfingstlied: Vot, moja Galja, vot kak raakazyvajut starye
7. No. 6 Hopak-Szene: Gop! Gop! Gop, tra-la.
8. No. 7 Trio: Ganna! Ganna!
9. No. 8 Rezitativ und Spottlied: Ge, khlopcy!

CD2

1. Act 2, No. 9 Trio: Skoro l' dumaete vy
2. No. 10 Szene des Kalenik und Erzählung: Ish', kak rastjanul dorogu
3. No. 11 Spottlied, Szene und Trio: Aj!...Kakoj tam d'javol?
4. No. 12 Finale: Zdes'?
5. Act 3, No. 13 Szene der Nixen, Ukrainische Nacht und Lieder Lewkos: Kak...
6. Nixenreigen: Sobirajtes', devicy
7. Tänze und Spiele der Nixen: Molodec milyj
8. No. 14 Szene und Pfingstlied: Ne bojtes'!
9. No. 15 Levko, Levko, milyj ty moj!
Исполнители:
Nicolai Rimsky-Korsakov - Maynight
Fairy Tale Opera in three acts
Libretto by Nikolai Rimsky-Korsakov based on Nikolai Gogol's story May Night, or the Drowned Maiden
Levko - Vladimir Bogachev, tenor
His sister in law - Galina Borisova, mezzo-soprano
The Mayor - Vladimir Matorin, bass
Hanna - Tatiana Erastova, mezzo-soprano
The clerk - Maxim Mikhailov, bass
Kalenik - Michael Krutikov, bass
Kölner Rundfunkchor & Sinfonieorchester
Alexander Lazarev

Лог создания рипа

CD1

Exact Audio Copy V1.0 beta 3 from 29. August 2011
EAC extraction logfile from 16. August 2014, 21:45
Rimsky-Korsakov / Die Mainacht, Lazarew CD1
Used drive : TSSTcorpCDDVDW SE-208AB Adapter: 1 ID: 0
Read mode : Secure
Utilize accurate stream : Yes
Defeat audio cache : Yes
Make use of C2 pointers : No
Read offset correction : 6
Overread into Lead-In and Lead-Out : No
Fill up missing offset samples with silence : Yes
Delete leading and trailing silent blocks : No
Null samples used in CRC calculations : Yes
Used interface : Native Win32 interface for Win NT & 2000
Used output format : Monkey's Audio Lossless Encoder
Selected bitrate : High Lossless Compression
Quality : High
Add ID3 tag : No
Command line compressor : C:\Program Files (x86)\Exact Audio Copy\MAC\MAC.exe
TOC of the extracted CD
Track | Start | Length | Start sector | End sector
---------------------------------------------------------
1 | 0:00.37 | 7:35.38 | 37 | 34199
2 | 7:36.00 | 4:14.70 | 34200 | 53319
3 | 11:50.70 | 3:43.50 | 53320 | 70094
4 | 15:34.45 | 10:31.47 | 70095 | 117466
5 | 26:06.17 | 6:38.33 | 117467 | 147349
6 | 32:44.50 | 2:41.55 | 147350 | 159479
7 | 35:26.30 | 5:49.62 | 159480 | 185716
8 | 41:16.17 | 7:20.25 | 185717 | 218741
9 | 48:36.42 | 3:57.18 | 218742 | 236534
Range status and errors
Selected range
Filename D:\EAC\Rimsky-Korsakov - Die Mainacht, Lazarew CD1.wav
Peak level 98.4 %
Extraction speed 1.8 X
Range quality 100.0 %
Test CRC 5CC34644
Copy CRC 5CC34644
Copy OK
No errors occurred
AccurateRip summary
Track 1 accurately ripped (confidence 2) [1E0EDA41] (AR v1)
Track 2 accurately ripped (confidence 2) [9FEE6A2D] (AR v1)
Track 3 accurately ripped (confidence 2) [F092E3CB] (AR v1)
Track 4 accurately ripped (confidence 2) [AA194FD6] (AR v1)
Track 5 accurately ripped (confidence 2) [CB07E83B] (AR v1)
Track 6 accurately ripped (confidence 2) [AD545C5C] (AR v1)
Track 7 accurately ripped (confidence 2) [124E98AC] (AR v1)
Track 8 accurately ripped (confidence 2) [3BA4DC14] (AR v1)
Track 9 accurately ripped (confidence 1) [D6763D83] (AR v2)
All tracks accurately ripped
End of status report
---- CUETools DB Plugin V2.1.3
[CTDB TOCID: 8x8aykUlSwfdvMSMHt7hkmmH.hA-] disk not present in database, Submit result: discs with pregaps not supported in this protocol version
==== Log checksum A01DFB8A925CD3327482E600D123A8646C23E0898556511240D9BA433BA0C918 ====

CD2

Exact Audio Copy V1.0 beta 3 from 29. August 2011
EAC extraction logfile from 16. August 2014, 22:00
Rimsky-Korsakov / Die Mainacht, Lazarew CD2
Used drive : TS8XDVDSTRANSCEND Adapter: 1 ID: 1
Read mode : Secure
Utilize accurate stream : Yes
Defeat audio cache : Yes
Make use of C2 pointers : No
Read offset correction : 6
Overread into Lead-In and Lead-Out : No
Fill up missing offset samples with silence : Yes
Delete leading and trailing silent blocks : No
Null samples used in CRC calculations : Yes
Used interface : Native Win32 interface for Win NT & 2000
Used output format : Monkey's Audio Lossless Encoder
Selected bitrate : High Lossless Compression
Quality : High
Add ID3 tag : No
Command line compressor : C:\Program Files (x86)\Exact Audio Copy\MAC\MAC.exe
TOC of the extracted CD
Track | Start | Length | Start sector | End sector
---------------------------------------------------------
1 | 0:00.37 | 3:57.23 | 37 | 17834
2 | 3:57.60 | 6:36.25 | 17835 | 47559
3 | 10:34.10 | 8:33.70 | 47560 | 86104
4 | 19:08.05 | 6:47.32 | 86105 | 116661
5 | 25:55.37 | 16:11.65 | 116662 | 189551
6 | 42:07.27 | 7:04.35 | 189552 | 221386
7 | 49:11.62 | 9:38.00 | 221387 | 264736
8 | 58:49.62 | 5:59.65 | 264737 | 291726
9 | 64:49.52 | 5:57.33 | 291727 | 318534
Range status and errors
Selected range
Filename D:\EAC\Rimsky-Korsakov - Die Mainacht, Lazarew CD2.wav
Peak level 100.0 %
Extraction speed 2.0 X
Range quality 100.0 %
Test CRC 1A6D50E4
Copy CRC 1A6D50E4
Copy OK
No errors occurred
AccurateRip summary
Track 1 accurately ripped (confidence 1) [A128DA48] (AR v2)
Track 2 accurately ripped (confidence 2) [F8BB9A8A] (AR v1)
Track 3 accurately ripped (confidence 2) [2C5B8DDA] (AR v1)
Track 4 accurately ripped (confidence 2) [85DFDC74] (AR v1)
Track 5 accurately ripped (confidence 2) [D0586809] (AR v1)
Track 6 accurately ripped (confidence 2) [8B9A9C37] (AR v1)
Track 7 accurately ripped (confidence 2) [F6EA0303] (AR v1)
Track 8 accurately ripped (confidence 2) [AEC7930A] (AR v1)
Track 9 accurately ripped (confidence 2) [3FC5E5B7] (AR v1)
All tracks accurately ripped
End of status report
---- CUETools DB Plugin V2.1.3
[CTDB TOCID: Tv_ZLCeOMG729c8H9Q30_ALBTWY-] disk not present in database, Submit result: discs with pregaps not supported in this protocol version
==== Log checksum 1AF5896A1B6A1C8FD9C45346963EC85FCFADC7AC22FB348736025879B1E69E79 ====

Содержание индексной карты (.CUE)

CD1

REM GENRE Opera
REM DATE 1997
REM DISCID 8F0C5109
REM COMMENT "ExactAudioCopy v1.0b3"
CATALOG 4006408107927
PERFORMER "Rimsky-Korsakov"
TITLE "Die Mainacht, Lazarew CD1"
FILE "Rimsky-Korsakov - Die Mainacht, Lazarew CD1.ape" WAVE
TRACK 01 AUDIO
TITLE "Ouvertüre"
PERFORMER "Rimsky-Korsakov"
INDEX 00 00:00:00
INDEX 01 00:00:37
TRACK 02 AUDIO
TITLE "ERSTER AKT, No. 1 Reigen: A my proso sejali, sejali!"
PERFORMER "Rimsky-Korsakov"
INDEX 01 07:36:00
TRACK 03 AUDIO
TITLE "No. 2 Lied: Solnyshko nizko, vecher uzh blizko"
PERFORMER "Rimsky-Korsakov"
INDEX 01 11:50:70
TRACK 04 AUDIO
TITLE "No. 3 Duett: Ne spish' ty, gordaja divchina!"
PERFORMER "Rimsky-Korsakov"
INDEX 01 15:34:45
TRACK 05 AUDIO
TITLE "No. 4 Erzählung: Davno eto bylo. Zhil sotnik y tom dome"
PERFORMER "Rimsky-Korsakov"
INDEX 01 26:06:17
TRACK 06 AUDIO
TITLE "No. 5 Rezitativ und Pfingstlied: Vot, moja Galja, vot kak raakazyvajut starye"
PERFORMER "Rimsky-Korsakov"
INDEX 01 32:44:50
TRACK 07 AUDIO
TITLE "No. 6 Hopak-Szene: Gop! Gop! Gop, tra-la."
PERFORMER "Rimsky-Korsakov"
INDEX 01 35:26:30
TRACK 08 AUDIO
TITLE "No. 7 Trio: Ganna! Ganna!"
PERFORMER "Rimsky-Korsakov"
INDEX 01 41:16:17
TRACK 09 AUDIO
TITLE "No. 8 Rezitativ und Spottlied: Ge, khlopcy!"
PERFORMER "Rimsky-Korsakov"
INDEX 01 48:36:42

CD2

REM GENRE Opera
REM DATE 1997
REM DISCID 7E109709
REM COMMENT "ExactAudioCopy v1.0b3"
CATALOG 4006408107934
PERFORMER "Rimsky-Korsakov"
TITLE "Die Mainacht, Lazarew CD2"
FILE "Rimsky-Korsakov - Die Mainacht, Lazarew CD2.ape" WAVE
TRACK 01 AUDIO
TITLE "ZWEITER AKT, No. 9 Trio: Skoro l' dumaete vy"
PERFORMER "Rimsky-Korsakov"
INDEX 00 00:00:00
INDEX 01 00:00:37
TRACK 02 AUDIO
TITLE "No. 10 Szene des Kalenik und Erzählung: Ish', kak rastjanul dorogu"
PERFORMER "Rimsky-Korsakov"
INDEX 01 03:57:60
TRACK 03 AUDIO
TITLE "No. 11 Spottlied, Szene und Trio: Aj!...Kakoj tam d'javol?"
PERFORMER "Rimsky-Korsakov"
INDEX 01 10:34:10
TRACK 04 AUDIO
TITLE "No. 12 Finale: Zdes'?"
PERFORMER "Rimsky-Korsakov"
INDEX 00 19:02:45
INDEX 01 19:08:05
TRACK 05 AUDIO
TITLE "DRITTER AKT, No. 13 Szene der Nixen, Ukrainische Nacht und Lieder Lewkos: Kak..."
PERFORMER "Rimsky-Korsakov"
INDEX 00 25:46:55
INDEX 01 25:55:37
TRACK 06 AUDIO
TITLE "Nixenreigen: Sobirajtes', devicy"
PERFORMER "Rimsky-Korsakov"
INDEX 01 42:07:27
TRACK 07 AUDIO
TITLE "Tänze und Spiele der Nixen: Molodec milyj"
PERFORMER "Rimsky-Korsakov"
INDEX 01 49:11:62
TRACK 08 AUDIO
TITLE "No. 14 Szene und Pfingstlied: Ne bojtes'!"
PERFORMER "Rimsky-Korsakov"
INDEX 01 58:49:62
TRACK 09 AUDIO
TITLE "No. 15 Levko, Levko, milyj ty moj!"
PERFORMER "Rimsky-Korsakov"
INDEX 01 64:49:52
Доп. информация:
Synopsis
Place: Near the village of Dikanka, Ukraine
Act 1
Village street outside Hanna's hut; evening
The people sing a folksong-game. After they disperse, Levko plays the bandura and sings outside Hanna's window. When she steps outside, she's afraid that people will be watching them. After some endearing exchanges, she asks about the old house across the way, over the pond. He tells her that a widower used to live there; his daughter (Pannochka), lived with him, and he decided to marry again. The new stepmother turned out to be a witch, and caused the father to banish his daughter from the house. In sorrow she drowned herself in the pond and became leader of the other rusalki (drowned maidens). One night, while they were all dancing in the moonlight, they saw the witch walking by, grabbed her, and pulled her into the water. The story goes that, now, when someone comes by the pond, Pannochka asks the person to point out which of them is the stepmother.
The story over, Hanna goes inside, and some maidens come around singing a sad "rusalka" song. In stumbles the drunken Kalenik on his way home; he tries dance the hopak and to kiss the girls, but they send him away to the Mayor's house, tricking him into thinking that it's his own.
When all is clear, the Mayor sneaks in, calling for Hanna; from the side, Levko notices that someone is there, and watches. The Mayor, who has his eyes on marrying Hanna, tries to impress her with his oft-repeated story about being a guide for Catherine the Great, but Hanna rebuffs him, sends him off, and goes inside. Levko calls the village lads together and teaches them a song to mock the Mayor and use in playing a trick on him.
Act 2
Scene 1: Interior of the Mayor's hut; late evening
The Mayor and his sister-in-law are entertaining the Distiller at dinner. The Distiller will soon be tearing down the old house by the pond to build a distillery. Kalenik mistakenly bursts in and causes a mild disturbance; then a rock breaks through a window, causing the Mayor to curse the unseen perpetrator outside. In superstitious alarm the Distiller warns the Mayor against such language, relating the story of his late mother-in-law and the ghost that haunted her because of her cursing at him in life. Suddenly, outside, the village lads start singing the taunting song that Levko taught them. The wind blows out the lights, and in the commotion the Mayor captures someone he thinks is the perpetrator, and locks "him" up in a side room. The Clerk enters to report that the lads are running about the village and that he has captured their leader. The Mayor, in disbelief, calls for a light, and they open the locked room. Out comes the Sister-in-Law, sobbing and not a little enraged. She goes outside. The Clerk, the Distiller, and the Mayor set off to find the scoundrel once and for all.
Scene 2: Village street outside the Clerk's hut; moonlit night
Outside the Clerk's hut, where the alleged true perpetrator is locked up, the three approach in trepidation. Crossing themselves against Satan, they open the door, and again out comes the Sister-in-Law, infinitely more angry than before. Then the village police arrive, holding Kalenik mistakenly as prisoner. With the police afraid to proceed, the Mayor threatens them with the wrath of the commissar, and they run off in obedience.
Act 3
Shore of the lake near the old gentleman's house; luminous moonlit night
Beside the pond, Levko sings to his absent beloved, then asks the moon to shine its light on the path to her abode. A window opens in the old house, and Pannochka appears, begging Levko to sing further. He doesn't seem to notice her at first, but a strange feeling comes over him, and he sings again. Then the rusalki appear on the shore and dance. Overcoming his astonishment, Levko joins in singing their round-dance, while Pannochka begs Levko to find the stepmother-witch.
Then the rusalki begin to play the game called "Raven." The first raven-maiden finds that she cannot continue, and Levko realizes that she can't be the witch. But the second player of that role -- the stepmother -- exposes her true self; Levko points her out, and the other rusalki jump on her and drag her down to the depths of the pond. In gratitude, Pannochka gives Levko a letter to show to his father, and disappears as dawn breaks. Given that he cannot read, he does not know what the letter contains.
The Mayor and the policemen arrive and grab Levko. The Mayor is surprised to find that the disguised miscreant is his own son. Levko shows his father the letter, which is passed on to the Clerk to read out loud. The letter turns out to be from the commissar, and instructs the Mayor to allow his son to marry Hanna. As the villagers come on the scene to greet the new day, Levko invents the story that the commissar will be coming for dinner, and the Mayor, puffed up with his own importance, gives in to the marriage. Levko and Hanna say a prayer for Pannochka, Kalenik stumbles in again, and the Sister-in-Law gives the Mayor another verbal brow-beating, as the people celebrate.



Показать сообщения:    

Текущее время: 06-Дек 11:14

Часовой пояс: UTC + 3


Вы не можете начинать темы
Вы не можете отвечать на сообщения
Вы не можете редактировать свои сообщения
Вы не можете удалять свои сообщения
Вы не можете голосовать в опросах
Вы не можете прикреплять файлы к сообщениям
Вы не можете скачивать файлы