(Opera) Пуччини - Богема / Puccini - La Boheme (Dvorsky, Poka, Benacka, Kincses, Konsulov - Bratislava Childrens Choir - Bratislava Radio Symphony Orchestra, Lenard) - 1998, APE (image+.cue) lossless


 

[Цитировать]

Giacomo Puccini - La Bohème
Жанр: Opera
Страна-производитель диска: Czech Republic
Год издания диска: 1998
Издатель (лейбл): Gramofonove zavody Lodenice
Номер по каталогу: L1 0390-2 602
Дата записи: 1980
Аудиокодек: APE
Тип рипа: image+.cue
Битрейт аудио: lossless
Продолжительность: 52'38+51'50
Источник: собственный рип
Наличие сканов в содержимом раздачи: да
Треклист:

CD1

1. Act I - Questo mar rosso
2. Pensier profundo
3. Si piu? Chi e la?
4. Ho pagato il trimestre
5. Non sono in vena
6. O sventata! sventata!
7. Che gelida manina
8. Si, mi chiamano Mimi
9. Ehi! Rodolfo!
10. O suave fanciulla
11. Act II - Aranci, datteli
12. Questa e Mimi
13. Una cuffietta a pizz
14. Oh! Essa! Musetta!
15. Quando men vo soletta
16. Che c'e? Dove?
17. Caro! Fuori il danaro!

CD2

1. Act III - Ohe, la, le guardie!
2. Sa dirme, scusi
3. C'e Rodolfo
4. Marcello. Finalmente!
5. Addio. Che! Vai?
6. Dunque e proprio finita?
7. Act IV - In un coupe?
8. O Mimi, tu piu non torni
9. Che ora sia?
10. Gavotta. Minuetto. Pavanella. Fandango
11. Musetta! C'e Mimi!
12. Mi sento assai meglio
13. Vecchia zimarra, senti
14. Sono andati?
15. Oh Dio! Mimi!
16. Che ha detto il edico?
Исполнители:
Giacomo Puccini - La Boheme
Opera in 4 Acts
Libretto: Luigi Illica and Giuseppe Giacosa based on Henri Murger's novel "From Bohemie Life"
Rudolph - Peter Dvorsky, tenor
Schaunard - Baláz Póka, baritone
Benoit - Stanislav Benacka, bass
Mimi - Veronika Kincses, soprano
Marcello - Ivan Konsulov, baritone
Colline - Dariusz Niemirowics, bass
Bratislava Childrens Choir
Choir of the Slovak National Theatre in Bratislava
Bratislava Radio Symphony Orchestra
Ondrej Lenárd

Лог создания рипа

CD1

Exact Audio Copy V1.0 beta 6 from 9. April 2015
EAC extraction logfile from 6. October 2015, 19:29
Dvorsky_Poka_Benacka_Kincses_Bratislava_RSO_&_Childrens_Choir_Lenard / Puccini - La Boheme, Lenard CD1
Used drive : TSSTcorpCDDVDW SE-208AB Adapter: 1 ID: 1
Read mode : Secure
Utilize accurate stream : Yes
Defeat audio cache : Yes
Make use of C2 pointers : No
Read offset correction : 6
Overread into Lead-In and Lead-Out : No
Fill up missing offset samples with silence : Yes
Delete leading and trailing silent blocks : No
Null samples used in CRC calculations : Yes
Used interface : Native Win32 interface for Win NT & 2000
Used output format : Monkey's Audio Lossless Encoder
Selected bitrate : High Lossless Compression
Quality : High
Add ID3 tag : Yes
Command line compressor : C:\Program Files (x86)\Exact Audio Copy\MAC\MAC.exe
TOC of the extracted CD
Track | Start | Length | Start sector | End sector
---------------------------------------------------------
1 | 0:00.00 | 4:26.43 | 0 | 19992
2 | 4:26.43 | 5:07.51 | 19993 | 43068
3 | 9:34.19 | 4:25.54 | 43069 | 62997
4 | 13:59.73 | 1:53.05 | 62998 | 71477
5 | 15:53.03 | 2:28.74 | 71478 | 82651
6 | 18:22.02 | 1:46.13 | 82652 | 90614
7 | 20:08.15 | 4:20.61 | 90615 | 110175
8 | 24:29.01 | 4:43.62 | 110176 | 131462
9 | 29:12.63 | 0:44.06 | 131463 | 134768
10 | 29:56.69 | 3:53.12 | 134769 | 152255
11 | 33:50.06 | 3:31.54 | 152256 | 168134
12 | 37:21.60 | 2:27.72 | 168135 | 179231
13 | 39:49.57 | 1:59.14 | 179232 | 188170
14 | 41:48.71 | 3:19.43 | 188171 | 203138
15 | 45:08.39 | 3:46.28 | 203139 | 220116
16 | 48:54.67 | 1:35.33 | 220117 | 227274
17 | 50:30.25 | 2:08.13 | 227275 | 236887
Range status and errors
Selected range
Filename D:\EAC\Puccini - La Boheme, Lenard CD1.wav
Peak level 83.9 %
Extraction speed 1.9 X
Range quality 100.0 %
Test CRC 97C20B8E
Copy CRC 97C20B8E
Copy OK
No errors occurred
AccurateRip summary
Track 1 accurately ripped (confidence 3) [D812E761] (AR v1)
Track 2 accurately ripped (confidence 3) [569C7701] (AR v1)
Track 3 accurately ripped (confidence 3) [A67B6DD6] (AR v1)
Track 4 accurately ripped (confidence 3) [6C82ED91] (AR v1)
Track 5 accurately ripped (confidence 3) [83C8F672] (AR v1)
Track 6 accurately ripped (confidence 3) [9D2C0F73] (AR v1)
Track 7 accurately ripped (confidence 3) [678C1DFC] (AR v1)
Track 8 accurately ripped (confidence 3) [8672DA54] (AR v1)
Track 9 accurately ripped (confidence 3) [7E0066EF] (AR v1)
Track 10 accurately ripped (confidence 3) [334B4F6F] (AR v1)
Track 11 accurately ripped (confidence 3) [83B0A51C] (AR v1)
Track 12 accurately ripped (confidence 3) [EEC391D7] (AR v1)
Track 13 accurately ripped (confidence 3) [EC1B821B] (AR v1)
Track 14 accurately ripped (confidence 3) [622ABB33] (AR v1)
Track 15 accurately ripped (confidence 3) [2A7E8564] (AR v1)
Track 16 accurately ripped (confidence 3) [EEFFBF3A] (AR v1)
Track 17 accurately ripped (confidence 3) [3BAAC43F] (AR v1)
All tracks accurately ripped
End of status report
---- CUETools DB Plugin V2.1.6
[CTDB TOCID: VXykHjFJ2.CG1xb4VRh3Ob5KS5w-] disk not present in database
Submit result: VXykHjFJ2.CG1xb4VRh3Ob5KS5w- has been uploaded
==== Log checksum 393CCCBBA42CD485DFDD6B932BCC11D85D3F9933EDDEBE8FC30CB406168D19DB ====

CD2

Exact Audio Copy V1.0 beta 6 from 9. April 2015
EAC extraction logfile from 6. October 2015, 19:02
Dvorsky_Poka_Benacka_Kincses_Bratislava_RSO_&_Childrens_Choir_Lenard / Puccini - La Boheme, Lenard CD2
Used drive : TS8XDVDSTRANSCEND Adapter: 1 ID: 2
Read mode : Secure
Utilize accurate stream : Yes
Defeat audio cache : Yes
Make use of C2 pointers : No
Read offset correction : 6
Overread into Lead-In and Lead-Out : No
Fill up missing offset samples with silence : Yes
Delete leading and trailing silent blocks : No
Null samples used in CRC calculations : Yes
Used interface : Native Win32 interface for Win NT & 2000
Used output format : Monkey's Audio Lossless Encoder
Selected bitrate : High Lossless Compression
Quality : High
Add ID3 tag : Yes
Command line compressor : C:\Program Files (x86)\Exact Audio Copy\MAC\MAC.exe
TOC of the extracted CD
Track | Start | Length | Start sector | End sector
---------------------------------------------------------
1 | 0:00.00 | 3:47.56 | 0 | 17080
2 | 3:47.56 | 2:07.48 | 17081 | 26653
3 | 5:55.29 | 4:13.64 | 26654 | 45692
4 | 10:09.18 | 5:21.45 | 45693 | 69812
5 | 15:30.63 | 3:00.31 | 69813 | 83343
6 | 18:31.19 | 5:41.74 | 83344 | 108992
7 | 24:13.18 | 1:25.11 | 108993 | 115378
8 | 25:38.29 | 2:46.25 | 115379 | 127853
9 | 28:24.54 | 2:28.44 | 127854 | 138997
10 | 30:53.23 | 1:40.17 | 138998 | 146514
11 | 32:33.40 | 1:59.47 | 146515 | 155486
12 | 34:33.12 | 3:40.32 | 155487 | 172018
13 | 38:13.44 | 2:33.12 | 172019 | 183505
14 | 40:46.56 | 5:48.54 | 183506 | 209659
15 | 46:35.35 | 2:31.29 | 209660 | 221013
16 | 49:06.64 | 2:42.69 | 221014 | 233232
Range status and errors
Selected range
Filename D:\EAC\Puccini - La Boheme, Lenard CD2.wav
Peak level 92.9 %
Extraction speed 4.3 X
Range quality 100.0 %
Test CRC DA3D3BC4
Copy CRC DA3D3BC4
Copy OK
No errors occurred
AccurateRip summary
Track 1 accurately ripped (confidence 3) [49BF25D9] (AR v1)
Track 2 accurately ripped (confidence 3) [75598757] (AR v1)
Track 3 accurately ripped (confidence 3) [A3E25B0C] (AR v1)
Track 4 accurately ripped (confidence 3) [8685F83C] (AR v1)
Track 5 accurately ripped (confidence 3) [8360FD81] (AR v1)
Track 6 accurately ripped (confidence 3) [D5C2E474] (AR v1)
Track 7 accurately ripped (confidence 3) [AD6F231B] (AR v1)
Track 8 accurately ripped (confidence 3) [AC1FF70E] (AR v1)
Track 9 accurately ripped (confidence 3) [5D08DC43] (AR v1)
Track 10 accurately ripped (confidence 3) [5404F9F6] (AR v1)
Track 11 accurately ripped (confidence 3) [2718BB2A] (AR v1)
Track 12 accurately ripped (confidence 3) [0DECDB69] (AR v1)
Track 13 accurately ripped (confidence 3) [244B0E90] (AR v1)
Track 14 accurately ripped (confidence 3) [B26A65E3] (AR v1)
Track 15 accurately ripped (confidence 3) [B0AA7063] (AR v1)
Track 16 accurately ripped (confidence 3) [E270DC40] (AR v1)
All tracks accurately ripped
End of status report
---- CUETools DB Plugin V2.1.6
[CTDB TOCID: Owud6KmLYtpRmNj67X0I2f4c08M-] disk not present in database
Submit result: unrecognized or virtual drive
==== Log checksum C4AD846BEF71776EC775F8EAF51FAA3AA6718C1A58EF4472FFBF4AE7106D5C5F ====

Содержание индексной карты (.CUE)

CD1

REM GENRE Opera
REM DATE 1980
REM DISCID D40C5611
REM COMMENT "ExactAudioCopy v1.0b6"
CATALOG 0000000000000
PERFORMER "Dvorsky_Poka_Benacka_Kincses_Bratislava_RSO_&_Childrens_Choir_Lenard"
TITLE "Puccini - La Boheme, Lenard CD1"
FILE "Puccini - La Boheme, Lenard CD1.ape" WAVE
TRACK 01 AUDIO
TITLE "Act I - Questo mar rosso"
PERFORMER "Dvorsky_Poka_Benacka_Kincses_Bratislava_RSO_&_Childrens_Choir_Lenard"
INDEX 01 00:00:00
TRACK 02 AUDIO
TITLE "Pensier profundo"
PERFORMER "Dvorsky_Poka_Benacka_Kincses_Bratislava_RSO_&_Childrens_Choir_Lenard"
INDEX 01 04:26:43
TRACK 03 AUDIO
TITLE "Si piu? Chi e la?"
PERFORMER "Dvorsky_Poka_Benacka_Kincses_Bratislava_RSO_&_Childrens_Choir_Lenard"
INDEX 01 09:34:19
TRACK 04 AUDIO
TITLE "Ho pagato il trimestre"
PERFORMER "Dvorsky_Poka_Benacka_Kincses_Bratislava_RSO_&_Childrens_Choir_Lenard"
INDEX 01 13:59:73
TRACK 05 AUDIO
TITLE "Non sono in vena"
PERFORMER "Dvorsky_Poka_Benacka_Kincses_Bratislava_RSO_&_Childrens_Choir_Lenard"
INDEX 01 15:53:03
TRACK 06 AUDIO
TITLE "O sventata! sventata!"
PERFORMER "Dvorsky_Poka_Benacka_Kincses_Bratislava_RSO_&_Childrens_Choir_Lenard"
INDEX 01 18:22:02
TRACK 07 AUDIO
TITLE "Che gelida manina"
PERFORMER "Dvorsky_Poka_Benacka_Kincses_Bratislava_RSO_&_Childrens_Choir_Lenard"
INDEX 01 20:08:15
TRACK 08 AUDIO
TITLE "Si, mi chiamano Mimi"
PERFORMER "Dvorsky_Poka_Benacka_Kincses_Bratislava_RSO_&_Childrens_Choir_Lenard"
INDEX 01 24:29:01
TRACK 09 AUDIO
TITLE "Ehi! Rodolfo!"
PERFORMER "Dvorsky_Poka_Benacka_Kincses_Bratislava_RSO_&_Childrens_Choir_Lenard"
INDEX 01 29:12:63
TRACK 10 AUDIO
TITLE "O suave fanciulla"
PERFORMER "Dvorsky_Poka_Benacka_Kincses_Bratislava_RSO_&_Childrens_Choir_Lenard"
INDEX 01 29:56:69
TRACK 11 AUDIO
TITLE "Act II - Aranci, datteli"
PERFORMER "Dvorsky_Poka_Benacka_Kincses_Bratislava_RSO_&_Childrens_Choir_Lenard"
INDEX 00 33:45:55
INDEX 01 33:50:06
TRACK 12 AUDIO
TITLE "Questa e Mimi"
PERFORMER "Dvorsky_Poka_Benacka_Kincses_Bratislava_RSO_&_Childrens_Choir_Lenard"
INDEX 01 37:21:60
TRACK 13 AUDIO
TITLE "Una cuffietta a pizzi"
PERFORMER "Dvorsky_Poka_Benacka_Kincses_Bratislava_RSO_&_Childrens_Choir_Lenard"
INDEX 01 39:49:57
TRACK 14 AUDIO
TITLE "Oh! Essa! Musetta!"
PERFORMER "Dvorsky_Poka_Benacka_Kincses_Bratislava_RSO_&_Childrens_Choir_Lenard"
INDEX 01 41:48:71
TRACK 15 AUDIO
TITLE "Quando men vo soletta"
PERFORMER "Dvorsky_Poka_Benacka_Kincses_Bratislava_RSO_&_Childrens_Choir_Lenard"
INDEX 01 45:08:39
TRACK 16 AUDIO
TITLE "Che c'e? Dove?"
PERFORMER "Dvorsky_Poka_Benacka_Kincses_Bratislava_RSO_&_Childrens_Choir_Lenard"
INDEX 01 48:54:67
TRACK 17 AUDIO
TITLE "Caro! Fuori il danaro!"
PERFORMER "Dvorsky_Poka_Benacka_Kincses_Bratislava_RSO_&_Childrens_Choir_Lenard"
INDEX 01 50:30:25

CD2

REM GENRE Opera
REM DATE 1980
REM DISCID EA0C2510
REM COMMENT "ExactAudioCopy v1.0b6"
CATALOG 0000000000000
PERFORMER "Dvorsky_Poka_Benacka_Kincses_Bratislava_RSO_&_Childrens_Choir_Lenard"
TITLE "Puccini - La Boheme, Lenard CD2"
FILE "Puccini - La Boheme, Lenard CD2.ape" WAVE
TRACK 01 AUDIO
TITLE "Act III - Ohe, la, le guardie!"
PERFORMER "Dvorsky_Poka_Benacka_Kincses_Bratislava_RSO_&_Childrens_Choir_Lenard"
INDEX 01 00:00:00
TRACK 02 AUDIO
TITLE "Sa dirme, scusi"
PERFORMER "Dvorsky_Poka_Benacka_Kincses_Bratislava_RSO_&_Childrens_Choir_Lenard"
INDEX 01 03:47:56
TRACK 03 AUDIO
TITLE "C'e Rodolfo"
PERFORMER "Dvorsky_Poka_Benacka_Kincses_Bratislava_RSO_&_Childrens_Choir_Lenard"
INDEX 01 05:55:29
TRACK 04 AUDIO
TITLE "Marcello. Finalmente!"
PERFORMER "Dvorsky_Poka_Benacka_Kincses_Bratislava_RSO_&_Childrens_Choir_Lenard"
INDEX 01 10:09:18
TRACK 05 AUDIO
TITLE "Addio. Che! Vai?"
PERFORMER "Dvorsky_Poka_Benacka_Kincses_Bratislava_RSO_&_Childrens_Choir_Lenard"
INDEX 01 15:30:63
TRACK 06 AUDIO
TITLE "Dunque e proprio finita?"
PERFORMER "Dvorsky_Poka_Benacka_Kincses_Bratislava_RSO_&_Childrens_Choir_Lenard"
INDEX 01 18:31:19
TRACK 07 AUDIO
TITLE "Act IV - In un coupe?"
PERFORMER "Dvorsky_Poka_Benacka_Kincses_Bratislava_RSO_&_Childrens_Choir_Lenard"
INDEX 00 24:08:16
INDEX 01 24:13:18
TRACK 08 AUDIO
TITLE "O Mimi, tu piu non torni"
PERFORMER "Dvorsky_Poka_Benacka_Kincses_Bratislava_RSO_&_Childrens_Choir_Lenard"
INDEX 01 25:38:29
TRACK 09 AUDIO
TITLE "Che ora sia?"
PERFORMER "Dvorsky_Poka_Benacka_Kincses_Bratislava_RSO_&_Childrens_Choir_Lenard"
INDEX 01 28:24:54
TRACK 10 AUDIO
TITLE "Gavotta. Minuetto. Pavanella. Fandango"
PERFORMER "Dvorsky_Poka_Benacka_Kincses_Bratislava_RSO_&_Childrens_Choir_Lenard"
INDEX 01 30:53:23
TRACK 11 AUDIO
TITLE "Musetta! C'e Mimi!"
PERFORMER "Dvorsky_Poka_Benacka_Kincses_Bratislava_RSO_&_Childrens_Choir_Lenard"
INDEX 00 32:33:39
INDEX 01 32:33:40
TRACK 12 AUDIO
TITLE "Mi sento assai meglio"
PERFORMER "Dvorsky_Poka_Benacka_Kincses_Bratislava_RSO_&_Childrens_Choir_Lenard"
INDEX 01 34:33:12
TRACK 13 AUDIO
TITLE "Vecchia zimarra, senti"
PERFORMER "Dvorsky_Poka_Benacka_Kincses_Bratislava_RSO_&_Childrens_Choir_Lenard"
INDEX 01 38:13:44
TRACK 14 AUDIO
TITLE "Sono andati?"
PERFORMER "Dvorsky_Poka_Benacka_Kincses_Bratislava_RSO_&_Childrens_Choir_Lenard"
INDEX 01 40:46:56
TRACK 15 AUDIO
TITLE "Oh Dio! Mimi!"
PERFORMER "Dvorsky_Poka_Benacka_Kincses_Bratislava_RSO_&_Childrens_Choir_Lenard"
INDEX 01 46:35:35
TRACK 16 AUDIO
TITLE "Che ha detto il medico?"
PERFORMER "Dvorsky_Poka_Benacka_Kincses_Bratislava_RSO_&_Childrens_Choir_Lenard"
INDEX 01 49:06:64



Показать сообщения:    

Текущее время: 06-Дек 15:07

Часовой пояс: UTC + 3


Вы не можете начинать темы
Вы не можете отвечать на сообщения
Вы не можете редактировать свои сообщения
Вы не можете удалять свои сообщения
Вы не можете голосовать в опросах
Вы не можете прикреплять файлы к сообщениям
Вы не можете скачивать файлы