(Opera) Giuseppe Verdi - Otello / Джузеппе Верди - Отелло (Tullio Serafin; Jon Vickers, Tito Gobbi, Leonie Rysanek, Florindo Andreolli), 1960 - Studio recording / FLAC (image+.cue), lossless


 

[Цитировать]

Giuseppe Verdi - Otello / Джузеппе Верди - Отелло (Tullio Serafin; Jon Vickers, Tito Gobbi, Leonie Rysanek, Florindo Andreolli)
Жанр: Opera
Страна-производитель диска: CША
Год издания диска: 1998
Издатель (лейбл): RCA
Дата записи: 1960
Аудиокодек: FLAC
Тип рипа: image+.cue
Битрейт аудио: lossless
Продолжительность: 142:23
Источник: релизер (bee)
Наличие сканов в содержимом раздачи: да
Исполнители:
Otello - Jon Vickers,
Iago - Tito Gobbi,
Desdemona - Leonie Rysanek,
Cassio - Florindo Andreolli,
Roderigo - Mario Carlin,
Lodovico - Ferruccio Mazzoli,
Montano - Franco Calabrese,
A Herald - Robert Kerns,
Emilia - Myriam Pirazzini.
Conductor - Tullio Serafin,
Rome Opera Orchestra and Chorus.
Recorded in the Rome Opera House, July-August 1960.

Лог создания рипаЛог создания рипа CD 1

Exact Audio Copy V1.0 beta 3 from 29. August 2011
EAC extraction logfile from 19. September 2012, 15:18
Giuseppe Verdi / Otello - Tullio Serafin (1-2)
Used drive : ATAPI iHAS122 Adapter: 0 ID: 0
Read mode : SecureUtilize accurate stream : YesDefeat audio cache : YesMake use of C2 pointers : No
Read offset correction : 6Overread into Lead-In and Lead-Out : NoFill up missing offset samples with silence : YesDelete leading and trailing silent blocks : NoNull samples used in CRC calculations : YesUsed interface : Native Win32 interface for Win NT & 2000
Used output format : User Defined EncoderSelected bitrate : 1024 kBit/sQuality : HighAdd ID3 tag : NoCommand line compressor : C:\Program Files\Exact Audio Copy\FLAC\FLAC.EXEAdditional command line options : -6 -V -T "ARTIST=%artist%" -T "TITLE=%title%" -T "ALBUM=%albumtitle%" -T "DATE=%year%" -T "TRACKNUMBER=%tracknr%" -T "GENRE=%genre%" -T "COMMENT=%comment%" -T "BAND=%albuminterpret%" -T "ALBUMARTIST=%albuminterpret%" -T "COMPOSER=%composer%" %haslyrics%--tag-from-file=LYRICS="%lyricsfile%"%haslyrics% -T "DISCNUMBER=%cdnumber%" -T "TOTALDISCS=%totalcds%" -T "TOTALTRACKS=%numtracks%" %hascover%--picture="%coverfile%"%hascover% %source% -o %dest%
TOC of the extracted CD
Track | Start | Length | Start sector | End sector --------------------------------------------------------- 1 | 0:00.00 | 4:11.03 | 0 | 18827 2 | 4:11.03 | 5:03.37 | 18828 | 41589 3 | 9:14.40 | 2:49.70 | 41590 | 54334 4 | 12:04.35 | 1:33.60 | 54335 | 61369 5 | 13:38.20 | 3:56.28 | 61370 | 79097 6 | 17:34.48 | 1:28.05 | 79098 | 85702 7 | 19:02.53 | 4:16.15 | 85703 | 104917 8 | 23:18.68 | 2:04.27 | 104918 | 114244 9 | 25:23.20 | 3:27.38 | 114245 | 129807 10 | 28:50.58 | 4:50.15 | 129808 | 151572 11 | 33:40.73 | 2:45.35 | 151573 | 163982 12 | 36:26.33 | 5:12.12 | 163983 | 187394 13 | 41:38.45 | 1:21.48 | 187395 | 193517 14 | 43:00.18 | 4:29.07 | 193518 | 213699 15 | 47:29.25 | 4:57.15 | 213700 | 235989 16 | 52:26.40 | 5:34.73 | 235990 | 261112 17 | 58:01.38 | 1:31.25 | 261113 | 267962 18 | 59:32.63 | 3:48.30 | 267963 | 285092 19 | 63:21.18 | 4:22.02 | 285093 | 304744 20 | 67:43.20 | 2:57.03 | 304745 | 318022
Range status and errors
Selected range
Filename D:\Propriétaire\Documents\Musique Upload en cours\Giuseppe Verdi - Otello - Tullio Serafin (1-2).wav
Peak level 76.2 % Extraction speed 9.9 X Range quality 99.9 % Copy CRC DBCF78BE Copy OK
No errors occurred
AccurateRip summary
Track 1 accurately ripped (confidence 3) [235610B4] (AR v2)Track 2 accurately ripped (confidence 3) [15BC9FEF] (AR v2)Track 3 accurately ripped (confidence 3) [29DF7C20] (AR v2)Track 4 accurately ripped (confidence 3) [AA313C60] (AR v2)Track 5 accurately ripped (confidence 3) [9412B550] (AR v2)Track 6 accurately ripped (confidence 3) [460F31E9] (AR v2)Track 7 accurately ripped (confidence 3) [F598534B] (AR v2)Track 8 accurately ripped (confidence 3) [9AEB7863] (AR v2)Track 9 accurately ripped (confidence 3) [ABB811F0] (AR v2)Track 10 accurately ripped (confidence 3) [AB41D501] (AR v2)Track 11 accurately ripped (confidence 3) [C2FB659C] (AR v2)Track 12 accurately ripped (confidence 3) [7E16250B] (AR v2)Track 13 accurately ripped (confidence 3) [BF9AFB96] (AR v2)Track 14 accurately ripped (confidence 3) [105A3724] (AR v2)Track 15 accurately ripped (confidence 2) [7D87CD90] (AR v2)Track 16 accurately ripped (confidence 2) [D26B5279] (AR v2)Track 17 accurately ripped (confidence 3) [767564AD] (AR v2)Track 18 accurately ripped (confidence 3) [A0DC42FC] (AR v2)Track 19 accurately ripped (confidence 3) [0630B49D] (AR v2)Track 20 accurately ripped (confidence 3) [6F3926B6] (AR v2)
All tracks accurately ripped
End of status report

Лог создания рипа CD 2

Exact Audio Copy V1.0 beta 3 from 29. August 2011
EAC extraction logfile from 19. September 2012, 15:41
Guiseppe Verdi / Otello - Tullio Serafin (2-2)
Used drive : ATAPI iHAS122 Adapter: 0 ID: 0
Read mode : SecureUtilize accurate stream : YesDefeat audio cache : YesMake use of C2 pointers : No
Read offset correction : 6Overread into Lead-In and Lead-Out : NoFill up missing offset samples with silence : YesDelete leading and trailing silent blocks : NoNull samples used in CRC calculations : YesUsed interface : Native Win32 interface for Win NT & 2000
Used output format : User Defined EncoderSelected bitrate : 1024 kBit/sQuality : HighAdd ID3 tag : NoCommand line compressor : C:\Program Files\Exact Audio Copy\FLAC\FLAC.EXEAdditional command line options : -6 -V -T "ARTIST=%artist%" -T "TITLE=%title%" -T "ALBUM=%albumtitle%" -T "DATE=%year%" -T "TRACKNUMBER=%tracknr%" -T "GENRE=%genre%" -T "COMMENT=%comment%" -T "BAND=%albuminterpret%" -T "ALBUMARTIST=%albuminterpret%" -T "COMPOSER=%composer%" %haslyrics%--tag-from-file=LYRICS="%lyricsfile%"%haslyrics% -T "DISCNUMBER=%cdnumber%" -T "TOTALDISCS=%totalcds%" -T "TOTALTRACKS=%numtracks%" %hascover%--picture="%coverfile%"%hascover% %source% -o %dest%
TOC of the extracted CD
Track | Start | Length | Start sector | End sector --------------------------------------------------------- 1 | 0:00.00 | 1:26.02 | 0 | 6451 2 | 1:26.02 | 1:21.10 | 6452 | 12536 3 | 2:47.12 | 10:15.00 | 12537 | 58661 4 | 13:02.12 | 5:16.30 | 58662 | 82391 5 | 18:18.42 | 3:45.65 | 82392 | 99331 6 | 22:04.32 | 1:47.70 | 99332 | 107426 7 | 23:52.27 | 1:18.28 | 107427 | 113304 8 | 25:10.55 | 5:57.15 | 113305 | 140094 9 | 31:07.70 | 9:46.40 | 140095 | 184084 10 | 40:54.35 | 3:44.70 | 184085 | 200954 11 | 44:39.30 | 8:12.65 | 200955 | 237919 12 | 52:52.20 | 7:38.45 | 237920 | 272314 13 | 60:30.65 | 3:29.22 | 272315 | 288011 14 | 64:00.12 | 3:32.45 | 288012 | 303956 15 | 67:32.57 | 5:42.23 | 303957 | 329629
Range status and errors
Selected range
Filename D:\Propriétaire\Documents\Musique Upload en cours\Guiseppe Verdi - Otello - Tullio Serafin (2-2).wav
Peak level 76.9 % Extraction speed 3.8 X Range quality 100.0 % Copy CRC BD99B4DC Copy OK
No errors occurred
AccurateRip summary
Track 1 accurately ripped (confidence 4) [0CEFA5CB] (AR v2)Track 2 accurately ripped (confidence 4) [5CD1761E] (AR v2)Track 3 accurately ripped (confidence 4) [13525F6B] (AR v2)Track 4 accurately ripped (confidence 3) [144BFAAC] (AR v2)Track 5 accurately ripped (confidence 4) [9421F1F7] (AR v2)Track 6 accurately ripped (confidence 4) [DB766114] (AR v2)Track 7 accurately ripped (confidence 4) [5CFE50C9] (AR v2)Track 8 accurately ripped (confidence 4) [B334BADF] (AR v2)Track 9 accurately ripped (confidence 4) [3BCFEC75] (AR v2)Track 10 accurately ripped (confidence 3) [710B39CA] (AR v2)Track 11 accurately ripped (confidence 3) [DE8A7220] (AR v2)Track 12 accurately ripped (confidence 3) [BC487E2B] (AR v2)Track 13 accurately ripped (confidence 4) [2C99EA82] (AR v2)Track 14 accurately ripped (confidence 3) [7FFC98FE] (AR v2)Track 15 accurately ripped (confidence 3) [5181E313] (AR v2)
All tracks accurately ripped
End of status report

Содержание индексной карты (.CUE)Содержание индексной карты (.CUE) CD 1

REM GENRE OperaREM DATE 1960REM DISCID FD109014REM COMMENT "ExactAudioCopy v1.0b3"PERFORMER "Giuseppe Verdi"TITLE "Otello - Tullio Serafin (1-2)"FILE "Giuseppe Verdi - Otello - Tullio Serafin (1-2).flac" WAVE TRACK 01 AUDIO TITLE "Act One - Una vela!" PERFORMER "Giuseppe Verdi" INDEX 01 00:00:00 TRACK 02 AUDIO TITLE "Act One - Esultate!" PERFORMER "Giuseppe Verdi" INDEX 01 04:11:03 TRACK 03 AUDIO TITLE "Act One - Fuoco di gioia!" PERFORMER "Giuseppe Verdi" INDEX 01 09:14:40 TRACK 04 AUDIO TITLE "Act One - Roderigo, beviam!" PERFORMER "Giuseppe Verdi" INDEX 01 12:04:35 TRACK 05 AUDIO TITLE "Act One - Inaffia l'ugola!" PERFORMER "Giuseppe Verdi" INDEX 01 13:38:20 TRACK 06 AUDIO TITLE "Act One - Capitano, v'attende" PERFORMER "Giuseppe Verdi" INDEX 01 17:34:48 TRACK 07 AUDIO TITLE "Act One - Ola! che avvien?" PERFORMER "Giuseppe Verdi" INDEX 01 19:02:53 TRACK 08 AUDIO TITLE "Act One - Gia nelle notte" PERFORMER "Giuseppe Verdi" INDEX 01 23:18:68 TRACK 09 AUDIO TITLE "Act One - Quando narrivi" PERFORMER "Giuseppe Verdi" INDEX 01 25:23:20 TRACK 10 AUDIO TITLE "Act One - Venga la morte!" PERFORMER "Giuseppe Verdi" INDEX 01 28:50:58 TRACK 11 AUDIO TITLE "Act Two - Non ti cruciar" PERFORMER "Giuseppe Verdi" INDEX 00 33:30:50 INDEX 01 33:40:73 TRACK 12 AUDIO TITLE "Act Two - Credo in un Dio crudel" PERFORMER "Giuseppe Verdi" INDEX 01 36:26:33 TRACK 13 AUDIO TITLE "Act Two - Eccola" PERFORMER "Giuseppe Verdi" INDEX 01 41:38:45 TRACK 14 AUDIO TITLE "Act Two - Cio' m'accora" PERFORMER "Giuseppe Verdi" INDEX 01 43:00:18 TRACK 15 AUDIO TITLE "Act Two - Dove guardi splendono" PERFORMER "Giuseppe Verdi" INDEX 01 47:29:25 TRACK 16 AUDIO TITLE "Act Two - D'un uom che geme" PERFORMER "Giuseppe Verdi" INDEX 01 52:26:40 TRACK 17 AUDIO TITLE "Act Two - Desdemona rea!" PERFORMER "Giuseppe Verdi" INDEX 01 58:01:38 TRACK 18 AUDIO TITLE "Act Two - Ora e per sempre addio" PERFORMER "Giuseppe Verdi" INDEX 01 59:32:63 TRACK 19 AUDIO TITLE "Act Two - Era la notte" PERFORMER "Giuseppe Verdi" INDEX 01 63:21:18 TRACK 20 AUDIO TITLE "Act Two - Si, pel ciel" PERFORMER "Giuseppe Verdi" INDEX 01 67:43:20

Содержание индексной карты (.CUE) CD 2

REM GENRE OperaREM DATE 1960REM DISCID CD112B0FREM COMMENT "ExactAudioCopy v1.0b3"PERFORMER "Guiseppe Verdi"TITLE "Otello - Tullio Serafin (2-2)"FILE "Guiseppe Verdi - Otello - Tullio Serafin (2-2).flac" WAVE TRACK 01 AUDIO TITLE "Act Three - Introduction" PERFORMER "Guiseppe Verdi" INDEX 01 00:00:00 TRACK 02 AUDIO TITLE "Act Three - La vedetta del porta ha segnalato..." PERFORMER "Guiseppe Verdi" INDEX 01 01:26:02 TRACK 03 AUDIO TITLE "Act Three - Dio ti giocondi ... Esterrefatta fisso" PERFORMER "Guiseppe Verdi" INDEX 01 02:47:12 TRACK 04 AUDIO TITLE "Act Three - Dio! mi potevi scagliar... ... Ah! dannazione!" PERFORMER "Guiseppe Verdi" INDEX 01 13:02:12 TRACK 05 AUDIO TITLE "Act Three - Vieni, l'aula и deserta..." PERFORMER "Guiseppe Verdi" INDEX 01 18:18:42 TRACK 06 AUDIO TITLE "Act Three - Questa и una ragna..." PERFORMER "Guiseppe Verdi" INDEX 01 22:04:32 TRACK 07 AUDIO TITLE "Act Three - Come la ucciderт?" PERFORMER "Guiseppe Verdi" INDEX 01 23:52:27 TRACK 08 AUDIO TITLE "Act Three - Viva! Evviva! Viva il Leon di San Marco!" PERFORMER "Guiseppe Verdi" INDEX 01 25:10:55 TRACK 09 AUDIO TITLE "Act Three - A terra...sм...nel livido fango..." PERFORMER "Guiseppe Verdi" INDEX 01 31:07:70 TRACK 10 AUDIO TITLE "Act Four - Era piщ calmo?" PERFORMER "Guiseppe Verdi" INDEX 00 40:47:55 INDEX 01 40:54:35 TRACK 11 AUDIO TITLE "Act Four - Mia madre avea una povera ancella" PERFORMER "Guiseppe Verdi" INDEX 01 44:39:30 TRACK 12 AUDIO TITLE "Act Four - Ave Maria..." PERFORMER "Guiseppe Verdi" INDEX 01 52:52:20 TRACK 13 AUDIO TITLE "Act Four - Chi и la? Otello?" PERFORMER "Guiseppe Verdi" INDEX 01 60:30:65 TRACK 14 AUDIO TITLE "Act Four - Calme come la tomba" PERFORMER "Guiseppe Verdi" INDEX 01 64:00:12 TRACK 15 AUDIO TITLE "Act Four - Niun mi tema" PERFORMER "Guiseppe Verdi" INDEX 01 67:32:57

Треклист

Disc 1:
Act I:
01. Una vela! (04:11)
02. Esultate! (05:03)
03. Fuoco di gioia! (02:50)
04. Roderigo, beviam! (01:34)
05. Inaffia l'ugola! (03:56)
06. Capitano, v'attende (01:28)
07. Ola! che avvien? (04:16)
08. Gia nelle notte (02:04)
09. Quando narrivi (03:28)
10. Venga la morte! (04:50)
Act II:
11. Non ti cruciar (02:45)
12. Credo in un Dio crudel (05:12)
13. Eccola (01:22)
14. Cio' m'accora (04:29)
15. Dove guardi splendono (04:57)
16. D'un uom che geme (05:35)
17. Desdemona rea! (01:31)
18. Ora e per sempre addio (03:48)
19. Era la notte (04:22)
20. Si, pel ciel (02:57)
Disc 2:
Act III:
01. Introduction (01:26)
02. La vedetta del porta ha segnalato... (01:21)
03. Dio ti giocondi ... Esterrefatta fisso (10:15)
04. Dio! mi potevi scagliar... ... Ah! dannazione! (05:16)
05. Vieni, l'aula e deserta... (03:46)
06. Questa e una ragna... (01:48)
07. Come la uccidero? (01:18)
08. Viva! Evviva! Viva il Leon di San Marco! (05:57)
09. A terra...si...nel livido fango... (09:47)
Act III:
10. Era piu calmo? (03:45)
11. Mia madre avea una povera ancella (08:13)
12. Ave Maria... (07:39)
13. Chi e la? Otello? (03:29)
14. Calme come la tomba (03:33)
15. Niun mi tema (05:42)



Показать сообщения:    

Текущее время: 05-Дек 15:33

Часовой пояс: UTC + 3


Вы не можете начинать темы
Вы не можете отвечать на сообщения
Вы не можете редактировать свои сообщения
Вы не можете удалять свои сообщения
Вы не можете голосовать в опросах
Вы не можете прикреплять файлы к сообщениям
Вы не можете скачивать файлы