(Opera) Римский-Корсаков - Майская ночь (Абрамов, Антонова, Демьянов, Красовский - Московского радио Оркестр & Хор, Голованов) - 2001, APE (image+.cue) lossless


 

[Цитировать]

Nicolai Rimsky-Korsakov - Maynight
Жанр: Opera
Страна-производитель диска: Italy
Год издания диска: 2001
Издатель (лейбл): Aura Music
Номер по каталогу: LRC 1107-2
Дата записи: 1946
Аудиокодек: APE
Тип рипа: image+.cue
Битрейт аудио: lossless
Продолжительность: 49'59+61'26
Источник: собственный рип
Наличие сканов в содержимом раздачи: да
Треклист:

CD1

1. Ouvertüre
2. Act 1: A my proso seyali
3. Solnietchka nizka, vietcher ouy blizka
4. Nie spichtie, gordaya divtchina
5. Davno eta biela, jil sotnik v'tom dome
6. Vol maya Gallia, vot kak rasskazie
7. Gop! Gop! Gop!
8. Hanna! Kto eto biel?
9. Hey Khlopsie!

CD2

1. Act 2: Scoral du mayete vie vachu vinnitsion postavit
2. Ich kak rastyanoul dorogu stana
3. Ahil Kakoiy tam diavol?
4. Zdies? Da stoyi! Stoyi Satana
5. Act 3: kak tikho, kak prohladno tut
6. Zamanivat molotsa pyenyem il sta rago smiekhom
7. Akh! Sabirayties, dievitsie sabirayties
8. Molodiets milyi, nayti mni yeya
9. Oh! Kak liegka mnya tiepyer
10. Niet, niet ya niet spa!
11. Niet baityes! Priamo khvataitye yeva!
12. Lievko, Lievko milyi tye moi
Исполнители:
Nicolai Rimsky-Korsakov - Maynight
Fairy Tale Opera in three acts
Libretto by Nikolai Rimsky-Korsakov based on Nikolai Gogol's story May Night, or the Drowned Maiden
Levko - Piotr Malyutenko, tenor
His sister in law - Elisaveta Antonova, mezzo-soprano
The Mayor - Segei Krasovsky, bass
Hanna - Maria Maksova, mezzo-soprano
The Chancellor - George Abramov, bass
Kalenik - Danyil Demianov, tenor
Moscow Radio Orchestra & Choir
Nikolai Golovanov Conductor

Лог создания рипа

CD1

Exact Audio Copy V1.0 beta 6 from 9. April 2015
EAC extraction logfile from 13. October 2015, 12:07
Krasovsky_Maksakova_Malyutenko_Moscow_Radio_Choir & Orch_Golovanov / Rimsky-Korsakov - May Night, Golovanov CD1
Used drive : TSSTcorpCDDVDW SE-208AB Adapter: 1 ID: 1
Read mode : Secure
Utilize accurate stream : Yes
Defeat audio cache : Yes
Make use of C2 pointers : No
Read offset correction : 6
Overread into Lead-In and Lead-Out : No
Fill up missing offset samples with silence : Yes
Delete leading and trailing silent blocks : No
Null samples used in CRC calculations : Yes
Used interface : Native Win32 interface for Win NT & 2000
Used output format : Monkey's Audio Lossless Encoder
Selected bitrate : High Lossless Compression
Quality : High
Add ID3 tag : Yes
Command line compressor : C:\Program Files (x86)\Exact Audio Copy\MAC\MAC.exe
TOC of the extracted CD
Track | Start | Length | Start sector | End sector
---------------------------------------------------------
1 | 0:00.00 | 8:34.74 | 0 | 38623
2 | 8:34.74 | 3:26.11 | 38624 | 54084
3 | 12:01.10 | 3:33.17 | 54085 | 70076
4 | 15:34.27 | 10:20.34 | 70077 | 116610
5 | 25:54.61 | 5:51.09 | 116611 | 142944
6 | 31:45.70 | 3:11.25 | 142945 | 157294
7 | 34:57.20 | 5:26.19 | 157295 | 181763
8 | 40:23.39 | 6:24.53 | 181764 | 210616
9 | 46:48.17 | 3:10.61 | 210617 | 224927
Range status and errors
Selected range
Filename D:\EAC\Rimsky-Korsakov - May Night, Golovanov CD1.wav
Peak level 76.1 %
Extraction speed 1.9 X
Range quality 100.0 %
Test CRC 73378BFC
Copy CRC 73378BFC
Copy OK
No errors occurred
AccurateRip summary
Track 1 accurately ripped (confidence 3) [A41E9E4D] (AR v1)
Track 2 accurately ripped (confidence 3) [8DA5177E] (AR v1)
Track 3 accurately ripped (confidence 3) [2B77CA39] (AR v1)
Track 4 accurately ripped (confidence 3) [72FB85CC] (AR v1)
Track 5 accurately ripped (confidence 3) [8A825F6A] (AR v1)
Track 6 accurately ripped (confidence 3) [AAF89AC2] (AR v1)
Track 7 accurately ripped (confidence 3) [E1CF55B3] (AR v1)
Track 8 accurately ripped (confidence 3) [056AFF9C] (AR v1)
Track 9 accurately ripped (confidence 3) [B0E7A55F] (AR v1)
All tracks accurately ripped
End of status report
---- CUETools DB Plugin V2.1.6
[CTDB TOCID: ElXzqmwulIJNClyijdGX6Evh_jA-] disk not present in database
Submit result: ElXzqmwulIJNClyijdGX6Evh_jA- has been uploaded
==== Log checksum 9783621128F49DF1B81CD26CE330E09C6F7398501C4935D4597D5BE4C2387062 ====

CD2

Exact Audio Copy V1.0 beta 6 from 9. April 2015
EAC extraction logfile from 13. October 2015, 11:46
Krasovsky_Maksakova_Malyutenko_Moscow_Radio_Choir & Orch_Golovanov / Rimsky-Korsakov - May Night, Golovanov CD2
Used drive : TS8XDVDSTRANSCEND Adapter: 1 ID: 2
Read mode : Secure
Utilize accurate stream : Yes
Defeat audio cache : Yes
Make use of C2 pointers : No
Read offset correction : 6
Overread into Lead-In and Lead-Out : No
Fill up missing offset samples with silence : Yes
Delete leading and trailing silent blocks : No
Null samples used in CRC calculations : Yes
Used interface : Native Win32 interface for Win NT & 2000
Used output format : Monkey's Audio Lossless Encoder
Selected bitrate : High Lossless Compression
Quality : High
Add ID3 tag : Yes
Command line compressor : C:\Program Files (x86)\Exact Audio Copy\MAC\MAC.exe
TOC of the extracted CD
Track | Start | Length | Start sector | End sector
---------------------------------------------------------
1 | 0:00.00 | 3:31.72 | 0 | 15896
2 | 3:31.72 | 6:16.62 | 15897 | 44158
3 | 9:48.59 | 8:20.35 | 44159 | 81693
4 | 18:09.19 | 5:49.43 | 81694 | 107911
5 | 23:58.62 | 11:56.02 | 107912 | 161613
6 | 35:54.64 | 3:37.17 | 161614 | 177905
7 | 39:32.06 | 5:41.07 | 177906 | 203487
8 | 45:13.13 | 5:54.74 | 203488 | 230111
9 | 51:08.12 | 3:34.70 | 230112 | 246231
10 | 54:43.07 | 0:56.14 | 246232 | 250445
11 | 55:39.21 | 3:36.69 | 250446 | 266714
12 | 59:16.15 | 2:10.02 | 266715 | 276466
Range status and errors
Selected range
Filename D:\EAC\Rimsky-Korsakov - May Night, Golovanov CD2.wav
Peak level 67.9 %
Extraction speed 4.8 X
Range quality 100.0 %
Test CRC 5E548A10
Copy CRC 5E548A10
Copy OK
No errors occurred
AccurateRip summary
Track 1 accurately ripped (confidence 3) [BC4C1C2D] (AR v1)
Track 2 accurately ripped (confidence 2) [0E2D3C79] (AR v1)
Track 3 accurately ripped (confidence 2) [7FD1C54E] (AR v1)
Track 4 accurately ripped (confidence 3) [E33AD0AF] (AR v1)
Track 5 accurately ripped (confidence 3) [DE6CF48B] (AR v1)
Track 6 accurately ripped (confidence 3) [336789A4] (AR v1)
Track 7 accurately ripped (confidence 3) [984202EB] (AR v1)
Track 8 accurately ripped (confidence 3) [9978EBB8] (AR v1)
Track 9 accurately ripped (confidence 3) [1D6BE816] (AR v1)
Track 10 accurately ripped (confidence 3) [B19DEF07] (AR v1)
Track 11 accurately ripped (confidence 3) [91C71501] (AR v1)
Track 12 accurately ripped (confidence 2) [56FEEF2D] (AR v1)
All tracks accurately ripped
End of status report
---- CUETools DB Plugin V2.1.6
[CTDB TOCID: y7.jHBhNDVH3kH5TQGlIJW.HmGU-] disk not present in database
Submit result: unrecognized or virtual drive
==== Log checksum 764743937A634042BADE03F3A7269CAB4F0901F117191D27398C6A1133E67381 ====

Содержание индексной карты (.CUE)

CD1

REM GENRE Opera
REM DATE 1946
REM DISCID 7A0BB709
REM COMMENT "ExactAudioCopy v1.0b6"
CATALOG 0000000000000
PERFORMER "Krasovsky_Maksakova_Malyutenko_Moscow_Radio_Choir & Orch_Golovanov"
TITLE "Rimsky-Korsakov - May Night, Golovanov CD1"
FILE "Rimsky-Korsakov - May Night, Golovanov CD1.ape" WAVE
TRACK 01 AUDIO
TITLE "Ouvertüre"
PERFORMER "Krasovsky_Maksakova_Malyutenko_Moscow_Radio_Choir & Orch_Golovanov"
INDEX 01 00:00:00
TRACK 02 AUDIO
TITLE "Act 1: A my proso seyali"
PERFORMER "Krasovsky_Maksakova_Malyutenko_Moscow_Radio_Choir & Orch_Golovanov"
INDEX 01 08:34:74
TRACK 03 AUDIO
TITLE "Solnietchka nizka, vietcher ouy blizka"
PERFORMER "Krasovsky_Maksakova_Malyutenko_Moscow_Radio_Choir & Orch_Golovanov"
INDEX 01 12:01:10
TRACK 04 AUDIO
TITLE "Nie spichtie, gordaya divtchina"
PERFORMER "Krasovsky_Maksakova_Malyutenko_Moscow_Radio_Choir & Orch_Golovanov"
INDEX 01 15:34:27
TRACK 05 AUDIO
TITLE "Davno eta biela, jil sotnik v'tom dome"
PERFORMER "Krasovsky_Maksakova_Malyutenko_Moscow_Radio_Choir & Orch_Golovanov"
INDEX 01 25:54:61
TRACK 06 AUDIO
TITLE "Vol maya Gallia, vot kak rasskazie"
PERFORMER "Krasovsky_Maksakova_Malyutenko_Moscow_Radio_Choir & Orch_Golovanov"
INDEX 01 31:45:70
TRACK 07 AUDIO
TITLE "Gop! Gop! Gop!"
PERFORMER "Krasovsky_Maksakova_Malyutenko_Moscow_Radio_Choir & Orch_Golovanov"
INDEX 01 34:57:20
TRACK 08 AUDIO
TITLE "Hanna! Kto eto biel?"
PERFORMER "Krasovsky_Maksakova_Malyutenko_Moscow_Radio_Choir & Orch_Golovanov"
INDEX 01 40:23:39
TRACK 09 AUDIO
TITLE "Hey Khlopsie!"
PERFORMER "Krasovsky_Maksakova_Malyutenko_Moscow_Radio_Choir & Orch_Golovanov"
INDEX 01 46:48:17

CD2

REM GENRE Opera
REM DATE 1946
REM DISCID 930E660C
REM COMMENT "ExactAudioCopy v1.0b6"
CATALOG 0000000000000
PERFORMER "Krasovsky_Maksakova_Malyutenko_Moscow_Radio_Choir & Orch_Golovanov"
TITLE "Rimsky-Korsakov - May Night, Golovanov CD2"
FILE "Rimsky-Korsakov - May Night, Golovanov CD2.ape" WAVE
TRACK 01 AUDIO
TITLE "Act 2: Scoral du mayete vie vachu vinnitsion postavit"
PERFORMER "Krasovsky_Maksakova_Malyutenko_Moscow_Radio_Choir & Orch_Golovanov"
INDEX 01 00:00:00
TRACK 02 AUDIO
TITLE "Ich kak rastyanoul dorogu stana"
PERFORMER "Krasovsky_Maksakova_Malyutenko_Moscow_Radio_Choir & Orch_Golovanov"
INDEX 01 03:31:72
TRACK 03 AUDIO
TITLE "Ahil Kakoiy tam diavol?"
PERFORMER "Krasovsky_Maksakova_Malyutenko_Moscow_Radio_Choir & Orch_Golovanov"
INDEX 01 09:48:59
TRACK 04 AUDIO
TITLE "Zdies? Da stoyi! Stoyi Satana"
PERFORMER "Krasovsky_Maksakova_Malyutenko_Moscow_Radio_Choir & Orch_Golovanov"
INDEX 01 18:09:19
TRACK 05 AUDIO
TITLE "Act 3: kak tikho, kak prohladno tut"
PERFORMER "Krasovsky_Maksakova_Malyutenko_Moscow_Radio_Choir & Orch_Golovanov"
INDEX 01 23:58:62
TRACK 06 AUDIO
TITLE "Zamanivat molotsa pyenyem il sta rago smiekhom"
PERFORMER "Krasovsky_Maksakova_Malyutenko_Moscow_Radio_Choir & Orch_Golovanov"
INDEX 01 35:54:64
TRACK 07 AUDIO
TITLE "Akh! Sabirayties, dievitsie sabirayties"
PERFORMER "Krasovsky_Maksakova_Malyutenko_Moscow_Radio_Choir & Orch_Golovanov"
INDEX 01 39:32:06
TRACK 08 AUDIO
TITLE "Molodiets milyi, nayti mni yeya"
PERFORMER "Krasovsky_Maksakova_Malyutenko_Moscow_Radio_Choir & Orch_Golovanov"
INDEX 01 45:13:13
TRACK 09 AUDIO
TITLE "Oh! Kak liegka mnya tiepyer"
PERFORMER "Krasovsky_Maksakova_Malyutenko_Moscow_Radio_Choir & Orch_Golovanov"
INDEX 01 51:08:12
TRACK 10 AUDIO
TITLE "Niet, niet ya niet spa!"
PERFORMER "Krasovsky_Maksakova_Malyutenko_Moscow_Radio_Choir & Orch_Golovanov"
INDEX 01 54:43:07
TRACK 11 AUDIO
TITLE "Niet baityes! Priamo khvataitye yeva!"
PERFORMER "Krasovsky_Maksakova_Malyutenko_Moscow_Radio_Choir & Orch_Golovanov"
INDEX 01 55:39:21
TRACK 12 AUDIO
TITLE " Lievko, Lievko milyi tye moi"
PERFORMER "Krasovsky_Maksakova_Malyutenko_Moscow_Radio_Choir & Orch_Golovanov"
INDEX 01 59:16:15



Показать сообщения:    

Текущее время: 03-Дек 09:51

Часовой пояс: UTC + 3


Вы не можете начинать темы
Вы не можете отвечать на сообщения
Вы не можете редактировать свои сообщения
Вы не можете удалять свои сообщения
Вы не можете голосовать в опросах
Вы не можете прикреплять файлы к сообщениям
Вы не можете скачивать файлы