Рейс 8585 (Владимир Латышев) [1985 г., детектив, фильм-спектакль, TVRip]


 

[Цитировать]

Рейс 8585 (2 части) Год выпуска: 1985.
Жанр: детектив, фильм-спектакль.
Продолжительность: 01:00:44 + 01:01:49 (02:02:11).
Режиссер-постановщик: Владимир Латышев.
Действующие лица и исполнители:
Дробышев - Леонид Леонидов,
Следователь прокуратуры - Л. Кузин,
Лика Леонова - Наталья Ипатова,
Алексей Самарин - Валерий Полетаев,
Антонина Самарина - Валентина Николаева,
Вероника - Людмила Ксенофонтова,
Таня - Татьяна Кузнецова,
Чиж - Василий Корзун,
Лариса - Анастасия Петропавловская,
Уборщица - Клавдия Фадеева,
Мужчина в баре - Валерий Караваев,
Пеньков - Юрий Кравцов,
Бармен - Олег Пальмов.
Описание:
Задолго до успеха "Улиц разбитых фонарей" на Ленинградском телевидении в 80-е годы снимали цикл фильмов-спектаклей на криминальную тему - "Следы остаются" (Дела и люди Ленинградской милиции).
Тоже особая атмосфера, обшарпанные дворы, яркие хитрые преступные личности, только время советское, и страна другая, и люди другие.
Спектакль, основан на документальном материале уголовного дела, рассмотренного городским судом.

Дополнительная информация:
Страна: СССР .
Выпущено: © Ленинградское телевидение.
Релиз

Качество: TVRip
Формат: AVI
Видео: 640x496 (1.29:1), 25 fps, XviD MPEG-4 ~1459 kbps avg, 0.18 bit/pixel
Аудио: 44.100 kHz, MPEG Layer 3, 2 ch, ~128.00 kbps avg

Отчет MI

1-я часть:
General
Complete name : Reis.8585.(2.chasti.iz.2).1985.XviD.TVRip.fenixclub\Reis.8585.1985_1-ya.chast'.avi
Format : AVI
Format/Info : Audio Video Interleave
File size : 694 MiB
Duration : 1h 0mn
Overall bit rate : 1 597 Kbps
Writing application : VirtualDubModRus 1.5.10.2 (build 2542/release)
Writing library : VirtualDub build 32842/release
Video
ID : 0
Format : MPEG-4 Visual
Format profile : Advanced Simple@L5
Format settings, BVOP : 2
Format settings, QPel : No
Format settings, GMC : No warppoints
Format settings, Matrix : Default (MPEG)
Codec ID : XVID
Codec ID/Hint : XviD
Duration : 1h 0mn
Bit rate : 1 459 Kbps
Width : 640 pixels
Height : 496 pixels
Display aspect ratio : 1.290
Frame rate : 25.000 fps
Color space : YUV
Chroma subsampling : 4:2:0
Bit depth : 8 bits
Scan type : Progressive
Compression mode : Lossy
Bits/(Pixel*Frame) : 0.184
Stream size : 634 MiB (91%)
Writing library : XviD 73
Audio
ID : 1
Format : MPEG Audio
Format version : Version 1
Format profile : Layer 3
Mode : Joint stereo
Mode extension : MS Stereo
Codec ID : 55
Codec ID/Hint : MP3
Duration : 1h 0mn
Bit rate mode : Constant
Bit rate : 128 Kbps
Channel(s) : 2 channels
Sampling rate : 44.1 KHz
Compression mode : Lossy
Stream size : 55.6 MiB (8%)
Alignment : Split accross interleaves
Interleave, duration : 40 ms (1.00 video frame)
Interleave, preload duratio : 500 ms
Writing library : LAME3.98.2
2-я часть:
General
Complete name : Reis.8585.(2.chasti.iz.2).1985.XviD.TVRip.fenixclub\Reis.8585.1985_2-ya.chast'.avi
Format : AVI
Format/Info : Audio Video Interleave
File size : 706 MiB
Duration : 1h 1mn
Overall bit rate : 1 598 Kbps
Writing application : VirtualDubModRus 1.5.10.2 (build 2542/release)
Writing library : VirtualDubMod build 2542/release
Video
ID : 0
Format : MPEG-4 Visual
Format profile : Advanced Simple@L5
Format settings, BVOP : 2
Format settings, QPel : No
Format settings, GMC : No warppoints
Format settings, Matrix : Default (MPEG)
Codec ID : XVID
Codec ID/Hint : XviD
Duration : 1h 1mn
Bit rate : 1 460 Kbps
Width : 640 pixels
Height : 496 pixels
Display aspect ratio : 1.290
Frame rate : 25.000 fps
Color space : YUV
Chroma subsampling : 4:2:0
Bit depth : 8 bits
Scan type : Progressive
Compression mode : Lossy
Bits/(Pixel*Frame) : 0.184
Stream size : 645 MiB (91%)
Writing library : XviD 73
Audio
ID : 1
Format : MPEG Audio
Format version : Version 1
Format profile : Layer 3
Codec ID : 55
Codec ID/Hint : MP3
Duration : 1h 1mn
Bit rate mode : Constant
Bit rate : 128 Kbps
Channel(s) : 2 channels
Sampling rate : 44.1 KHz
Compression mode : Lossy
Stream size : 56.6 MiB (8%)
Alignment : Split accross interleaves
Interleave, duration : 40 ms (1.00 video frame)
Interleave, preload duratio : 500 ms
Writing library : LAME3.99r
Encoding settings : -m s -V 4 -q 2 -lowpass 17 -b 128

Скриншоты


Альтернативный хост





Показать сообщения:    

Текущее время: 08-Дек 21:12

Часовой пояс: UTC + 3


Вы не можете начинать темы
Вы не можете отвечать на сообщения
Вы не можете редактировать свои сообщения
Вы не можете удалять свои сообщения
Вы не можете голосовать в опросах
Вы не можете прикреплять файлы к сообщениям
Вы не можете скачивать файлы