Настройщик землетрясений / The Piano Tuner of Earthquakes (Стивен Куэй / Stephen Quay, Тимоти Куэй / Timothy Quay) [2005, Германия Франция Великобритания, сюрреализм, мистика, опера, DVDRip] MVO + Sub Rus, Eng + Original Eng


Статистика раздачи [Обновить пиров]
Размер:  1.75 GB   |    Зарегистрирован:  1 год 1 месяц   |    Скачан:  0 раз

Полного источника не было: Никогда

Личеров:  3  [  0 KB/s  ]   Подробная статистика пиров
 
   
 
 
 

[Цитировать]

Настройщик землетрясений / The Piano Tuner of Earthquakes
Страна: Германия Франция Великобритания
Жанр: сюрреализм, мистика, опера
Год выпуска: 2005
Продолжительность: 01:34:57
Перевод: Профессиональный (многоголосый закадровый)
Cубтитры: русские, английские
Оригинальная аудиодорожка: английский

Режиссер: Стивен Куэй / Stephen Quay, Тимоти Куэй / Timothy Quay
В ролях: Амира Казар, Готтфрид Джон, Ассумпта Серна, Сезар Сарачу, Марк Бишоф, Хеннинг Пекер, Жиль Гавуа, Фолькер Зак, Томас Шмидер, Регине Циммерман, Эмил Петров
Описание: При загадочных обстоятельствах доктор Дроз убивает прекрасную певицу Мальвину накануне ее свадьбы. Он привозит ее труп к себе в замок и оживляет его. Проходит какое-то время, и Дроз вызывает простоватого настройщика Фелисберто, чтобы тот привел в порядок его музыкальные инструменты. С опаской наблюдая за владельцем загадочной виллы, Фелисберто вскоре узнает о судьбе певицы и о желании хозяина поставить «дьявольскую оперу» с ее участием. В итоге Фелисберто решает спасти девушку, но для этого он должен проникнуть в сюрреалистический мир богача.
Качество видео: DVDRip
Формат видео: AVI
Видео: 688x304 (2.26:1), 25 fps, XviD build 73 ~1982 kbps avg, 0.38 bit/pixel
Аудио: 48 kHz, AC3 Dolby Digital, 2/0 (L,R) ch, ~192 kbps - многоголосый
Аудио: 48 kHz, AC3 Dolby Digital, 3/2 (L,C,R,l,r) + LFE ch, ~448 kbps - оригинал (отдельным файлом)

MediaInfo

Общее
Полное имя : H:\The.Piano.Tuner.of.Earthquakes.2005.dvdrip_[1.46]_[]teko\The.Piano.Tuner.of.Earthquakes.2005.dvdrip_[1.46].avi
Формат : AVI
Формат/Информация : Audio Video Interleave
Размер файла : 1,45 Гбайт
Продолжительность : 1 ч. 34 м.
Общий поток : 2184 Кбит/сек
Программа кодирования : VirtualDubMod 1.5.10.3 | www.virtualdub-fr.org || (build 2550/release)
Библиотека кодирования : VirtualDubMod build 2550/release
Видео
Идентификатор : 0
Формат : MPEG-4 Visual
Профиль формата : Advanced Simple@L5
Параметр BVOP формата : 1
Параметр QPel формата : Нет
Параметр GMC формата : Без точки перехода
Параметр матрицы формата : Выборочная
Идентификатор кодека : XVID
Идентификатор кодека/Подсказка : XviD
Продолжительность : 1 ч. 34 м.
Битрейт : 1982 Кбит/сек
Ширина : 688 пикселей
Высота : 304 пикселя
Соотношение сторон : 2,25:1
Частота кадров : 25,000 кадров/сек
Цветовое пространство : YUV
Субдискретизация насыщенности : 4:2:0
Битовая глубина : 8 бит
Тип развёртки : Прогрессивная
Метод сжатия : С потерями
Бит/(Пиксели*Кадры) : 0.379
Размер потока : 1,31 Гбайт (91%)
Библиотека кодирования : XviD 73
Аудио
Идентификатор : 1
Формат : AC-3
Формат/Информация : Audio Coding 3
Расширение режима : CM (complete main)
Параметр Endianness формата : Big
Идентификатор кодека : 2000
Продолжительность : 1 ч. 34 м.
Вид битрейта : Постоянный
Битрейт : 192 Кбит/сек
Каналы : 2 канала
Расположение каналов : Front: L R
Частота : 48,0 КГц
Битовая глубина : 16 бит
Метод сжатия : С потерями
Размер потока : 130 Мбайт (9%)
Выравнивание : Разделение по промежуткам
Продолжительность промежутка : 40 мс. (1,00 видеокадр)
Время предзагрузки промежутка : 500 мс.
[teatrix.ru].t9592.torrent 
Торрент: Зарегистрирован [ 2015-10-22 16:45 ] · 767E5DD735A2005356B4625A5504CFC76002B577

Скачать .torrent

Скачать

18 KB

Статус: проверено
Скачан: 0 раз
Размер: 1.75 GB
terms.php



Быстрый ответ

Имя:

      
Для отправки сообщений необходимо включить JavaScript
Показать сообщения:    

Текущее время: 08-Дек 07:06

Часовой пояс: UTC + 3


Вы можете начинать темы
Вы можете отвечать на сообщения
Вы не можете редактировать свои сообщения
Вы не можете удалять свои сообщения
Вы не можете голосовать в опросах
Вы не можете прикреплять файлы к сообщениям
Вы можете скачивать файлы