(Opera, Parody) Хайнц Эрхардт - 10 грошовых опер / Ehrhardt - 10 Pfennig Oper (Ehrhardt, Neidlinger, De Fretas, Glawitsch, Gotthardt - Aschenbrenner NWDR Orchester, Spitz) - 2008, APE (image+.cue) lossless


 

[Цитировать]

Heinz Ehrhardt - 10 Pfennig Oper
Жанр: Opera, Parody
Страна-производитель диска: Germany
Год издания диска: 2008
Издатель (лейбл): Germany Berlin Classics
Номер по каталогу: 0184602BC
Дата записи: 1947
Аудиокодек: APE
Тип рипа: image+.cue
Битрейт аудио: lossless
Продолжительность: 38'42
Источник: собственный рип
Наличие сканов в содержимом раздачи: да
Треклист:
1. Vorwort
2.
Intro
3. GieBt ein / Der Muselmann
4. Zeit fiir den Raubüberfall
5. ... das HeiBgetränk ...
6. Die Herrin naht. ..
7. Gleich kornmt sie rein ..
8. ... mitnichten ...
9. Heute Naehmittag kornmt Geierbliek ...
10. ... eines Ritters Augen ...
11. Jetzt geht sie ...
12. Ist sie Mein oder ist sie Sein
13. Ich bin der Ritter Geierblick
14. KüB die Hand gnädige Frau ..
15. Wie köstlich der labende Trank
16.
Lasst uns aufbrechen ...
17. Weil du mich liebst
18. ... bin ich so glücklich
19. Kunibert kornmt zurück
20. Clothilde stürzt sich hinab ...
21. Hulla, hulla ...
22. Ich bin der Ritter Geierblick
23. Zweikampf
24. ... es traf mich eben ...
25.
Nun liegt er da der Gute
26.
Mein Herr dahin ...
27. Achtung, fertig los!
28. Weh mir. ..
29. Nun liegt er da der Gute ...
30.
Nun bin ich tot wie noch nie
31. Ein Stich, ein Loch
32. ... und schwimmt in seinem Blute
33.
GieBt ein, gieBt ein, stoBt an, stoBt an
34. Prélude D-Dur
Исполнители:
Heinz Ehrhardt - 10 Pfennig Oper
Musikdrama in einem Akt von Heinz Ehrhardt
Text & Music composed by Heinz Ehrhardt
Erzähler - Heinz Ehrhardt
Kunibert - Gustav Neidlinger
Clothilde - Elisabeth De Fretas
Geierblick - Rupert Glawitsch
Page - Evi Gotthardt
Johann - Bob Iller
Männer Doppel Quartett des NWDR
Aschenbrenner NWDR Orchester
Hermann Spitz

Лог создания рипа

Exact Audio Copy V1.0 beta 3 from 29. August 2011
EAC extraction logfile from 2. October 2014, 15:34
Erhardt / 10 Pfennig Oper, Spitz
Used drive : TSSTcorpCDDVDW SE-208AB Adapter: 1 ID: 0
Read mode : SecureUtilize accurate stream : YesDefeat audio cache : YesMake use of C2 pointers : No
Read offset correction : 6Overread into Lead-In and Lead-Out : NoFill up missing offset samples with silence : YesDelete leading and trailing silent blocks : NoNull samples used in CRC calculations : YesUsed interface : Native Win32 interface for Win NT & 2000
Used output format : Monkey's Audio Lossless EncoderSelected bitrate : High Lossless CompressionQuality : HighAdd ID3 tag : NoCommand line compressor : C:\Program Files (x86)\Exact Audio Copy\MAC\MAC.exe
TOC of the extracted CD
Track | Start | Length | Start sector | End sector --------------------------------------------------------- 1 | 0:00.00 | 1:06.38 | 0 | 4987 2 | 1:06.38 | 1:17.51 | 4988 | 10813 3 | 2:24.14 | 2:41.30 | 10814 | 22918 4 | 5:05.44 | 0:50.10 | 22919 | 26678 5 | 5:55.54 | 0:26.38 | 26679 | 28666 6 | 6:22.17 | 1:01.16 | 28667 | 33257 7 | 7:23.33 | 2:03.28 | 33258 | 42510 8 | 9:26.61 | 0:41.34 | 42511 | 45619 9 | 10:08.20 | 1:23.28 | 45620 | 51872 10 | 11:31.48 | 1:18.05 | 51873 | 57727 11 | 12:49.53 | 0:25.17 | 57728 | 59619 12 | 13:14.70 | 0:53.61 | 59620 | 63655 13 | 14:08.56 | 3:27.05 | 63656 | 79185 14 | 17:35.61 | 1:35.44 | 79186 | 86354 15 | 19:11.30 | 0:19.33 | 86355 | 87812 16 | 19:30.63 | 4:32.46 | 87813 | 108258 17 | 24:03.34 | 2:16.10 | 108259 | 118468 18 | 26:19.44 | 1:30.17 | 118469 | 125235 19 | 27:49.61 | 1:15.46 | 125236 | 130906 20 | 29:05.32 | 0:24.51 | 130907 | 132757 21 | 29:30.08 | 0:33.46 | 132758 | 135278 22 | 30:03.54 | 0:51.64 | 135279 | 139167 23 | 30:55.43 | 0:25.06 | 139168 | 141048 24 | 31:20.49 | 0:33.26 | 141049 | 143549 25 | 31:54.00 | 0:39.47 | 143550 | 146521 26 | 32:33.47 | 0:27.03 | 146522 | 148549 27 | 33:00.50 | 0:31.60 | 148550 | 150934 28 | 33:32.35 | 0:32.21 | 150935 | 153355 29 | 34:04.56 | 0:47.66 | 153356 | 156946 30 | 34:52.47 | 0:15.17 | 156947 | 158088 31 | 35:07.64 | 0:34.03 | 158089 | 160641 32 | 35:41.67 | 0:28.02 | 160642 | 162743 33 | 36:09.69 | 0:55.64 | 162744 | 166932 34 | 37:05.58 | 1:34.34 | 166933 | 174016
Range status and errors
Selected range
Filename D:\EAC\Erhardt - 10 Pfennig Oper, Spitz.wav
Peak level 98.9 % Extraction speed 4.0 X Range quality 100.0 % Test CRC 851DA3C3 Copy CRC 851DA3C3 Copy OK
No errors occurred
AccurateRip summary
Track 1 accurately ripped (confidence 1) [C97A13AF] (AR v1)Track 2 accurately ripped (confidence 1) [78710AAD] (AR v1)Track 3 accurately ripped (confidence 1) [78622146] (AR v1)Track 4 accurately ripped (confidence 1) [606E5B70] (AR v1)Track 5 accurately ripped (confidence 1) [40B052D5] (AR v1)Track 6 accurately ripped (confidence 1) [B1963A53] (AR v1)Track 7 accurately ripped (confidence 1) [6866C608] (AR v1)Track 8 accurately ripped (confidence 1) [3724E2CE] (AR v1)Track 9 accurately ripped (confidence 1) [F36CFEB3] (AR v1)Track 10 accurately ripped (confidence 1) [DA6B71EF] (AR v1)Track 11 accurately ripped (confidence 1) [FAE4D8FC] (AR v1)Track 12 accurately ripped (confidence 1) [CD03F55C] (AR v1)Track 13 accurately ripped (confidence 1) [6BA50847] (AR v1)Track 14 accurately ripped (confidence 1) [0DEE3F6E] (AR v1)Track 15 accurately ripped (confidence 1) [349E1969] (AR v1)Track 16 accurately ripped (confidence 1) [CA55EB18] (AR v1)Track 17 accurately ripped (confidence 1) [4F4CEEF3] (AR v1)Track 18 accurately ripped (confidence 1) [B455805E] (AR v1)Track 19 accurately ripped (confidence 1) [92D4E8C7] (AR v1)Track 20 accurately ripped (confidence 1) [0816FF19] (AR v1)Track 21 accurately ripped (confidence 1) [3B78B927] (AR v1)Track 22 accurately ripped (confidence 1) [EB76D4E1] (AR v1)Track 23 accurately ripped (confidence 1) [8F3DA922] (AR v1)Track 24 accurately ripped (confidence 1) [7E5995A8] (AR v1)Track 25 accurately ripped (confidence 1) [12F10FCA] (AR v1)Track 26 accurately ripped (confidence 1) [A00CDD45] (AR v1)Track 27 accurately ripped (confidence 1) [D41E135F] (AR v1)Track 28 accurately ripped (confidence 1) [9B947D66] (AR v1)Track 29 accurately ripped (confidence 1) [733B013B] (AR v1)Track 30 accurately ripped (confidence 1) [D58A5F7D] (AR v1)Track 31 accurately ripped (confidence 1) [A08627FD] (AR v1)Track 32 accurately ripped (confidence 1) [4F0973CA] (AR v1)Track 33 accurately ripped (confidence 1) [E06C8B53] (AR v1)Track 34 accurately ripped (confidence 1) [FC50C37D] (AR v1)
All tracks accurately ripped
End of status report
---- CUETools DB Plugin V2.1.3
[CTDB TOCID: dTtcpFQ7se.n0Weh7mjsicsriqI-] disk not present in database, Submit result: dTtcpFQ7se.n0Weh7mjsicsriqI- has been uploaded
==== Log checksum 27DD9EBEF94C1D09F3A43F14618545AE28844E0AD689A5FBE39993539741D2CD ====

Содержание индексной карты (.CUE)

REM GENRE OperaREM DATE 1947REM DISCID E0091022REM COMMENT "ExactAudioCopy v1.0b3"PERFORMER "Erhardt"TITLE "10 Pfennig Oper, Spitz"FILE "Erhardt - 10 Pfennig Oper, Spitz.ape" WAVE TRACK 01 AUDIO TITLE "Vorwort" PERFORMER "Erhardt" INDEX 01 00:00:00 TRACK 02 AUDIO TITLE "Intro" PERFORMER "Erhardt" ISRC DES380840001 INDEX 00 01:04:15 INDEX 01 01:06:38 TRACK 03 AUDIO TITLE "Der Muselmann" PERFORMER "Gießt ein" ISRC DES380840002 INDEX 01 02:24:14 TRACK 04 AUDIO TITLE "Zeit für den Raubüberfall" PERFORMER "Erhardt" ISRC DES380840003 INDEX 01 05:05:44 TRACK 05 AUDIO TITLE "... das Heißgetränk...." PERFORMER "Erhardt" ISRC DES380840004 INDEX 01 05:55:54 TRACK 06 AUDIO TITLE "Die Herrin naht..." PERFORMER "Erhardt" ISRC DES380840005 INDEX 01 06:22:17 TRACK 07 AUDIO TITLE "Gleich kommt sie rein..." PERFORMER "Erhardt" ISRC DES380840006 INDEX 01 07:23:33 TRACK 08 AUDIO TITLE "...mitnichten..." PERFORMER "Erhardt" ISRC DES380840007 INDEX 01 09:26:61 TRACK 09 AUDIO TITLE "heute Nachmittag kommt Geierblick" PERFORMER "Erhardt" ISRC DES380840007 INDEX 01 10:08:20 TRACK 10 AUDIO TITLE "... eines Ritters Augen..." PERFORMER "Erhardt" ISRC DES380840009 INDEX 01 11:31:48 TRACK 11 AUDIO TITLE "Jetzt geht sie..." PERFORMER "Erhardt" ISRC DES380840010 INDEX 01 12:49:53 TRACK 12 AUDIO TITLE "Ist sie Mein oder ist sie Sein" PERFORMER "Erhardt" ISRC DES380840011 INDEX 01 13:14:70 TRACK 13 AUDIO TITLE "Ich bin der Ritter Geierblick" PERFORMER "Erhardt" ISRC DES380840012 INDEX 01 14:08:56 TRACK 14 AUDIO TITLE "Küß die Hand gnädige Frau..." PERFORMER "Erhardt" ISRC DES380840012 INDEX 01 17:35:61 TRACK 15 AUDIO TITLE "Wie köstlich der labende Trank" PERFORMER "Erhardt" ISRC DES380840014 INDEX 01 19:11:30 TRACK 16 AUDIO TITLE "Laßt uns aufbrechen..." PERFORMER "Erhardt" ISRC DES380840015 INDEX 01 19:30:63 TRACK 17 AUDIO TITLE "Weil du mich liebst" PERFORMER "Erhardt" ISRC DES380840016 INDEX 01 24:03:34 TRACK 18 AUDIO TITLE ".... bin ich so glücklich" PERFORMER "Erhardt" ISRC DES380840017 INDEX 01 26:19:44 TRACK 19 AUDIO TITLE "Kunibert kommt zurück" PERFORMER "Erhardt" ISRC DES380840018 INDEX 01 27:49:61 TRACK 20 AUDIO TITLE "Clothilde stürzt sich hinab..." PERFORMER "Erhardt" ISRC DES380840019 INDEX 01 29:05:32 TRACK 21 AUDIO TITLE "Hulla, hulla" PERFORMER "Erhardt" ISRC DES380840020 INDEX 01 29:30:08 TRACK 22 AUDIO TITLE "Ich bin der Ritter Geierblick" PERFORMER "Erhardt" ISRC DES380840021 INDEX 01 30:03:54 TRACK 23 AUDIO TITLE "Zweikampf" PERFORMER "Erhardt" ISRC DES380840022 INDEX 01 30:55:43 TRACK 24 AUDIO TITLE "...es traf mich eben..." PERFORMER "Erhardt" ISRC DES380840023 INDEX 01 31:20:49 TRACK 25 AUDIO TITLE "Nun liegt er da der Gute" PERFORMER "Erhardt" ISRC DES380840024 INDEX 01 31:54:00 TRACK 26 AUDIO TITLE "Mein Herr dahin..." PERFORMER "Erhardt" ISRC DES380840025 INDEX 01 32:33:47 TRACK 27 AUDIO TITLE "Achtung, fertig los!" PERFORMER "Erhardt" ISRC DES380840025 INDEX 01 33:00:50 TRACK 28 AUDIO TITLE "Weh mir..." PERFORMER "Erhardt" ISRC DES380840027 INDEX 01 33:32:35 TRACK 29 AUDIO TITLE "Nun liegt er da der Gute..." PERFORMER "Erhardt" ISRC DES380840028 INDEX 01 34:04:56 TRACK 30 AUDIO TITLE "Nun bin ich tot wie noch nie" PERFORMER "Erhardt" ISRC DES380840029 INDEX 01 34:52:47 TRACK 31 AUDIO TITLE "Ein Stich, ein Loch" PERFORMER "Erhardt" ISRC DES380840030 INDEX 01 35:07:64 TRACK 32 AUDIO TITLE "...und schwimmt in seinem Blute" PERFORMER "Erhardt" ISRC DES380840031 INDEX 01 35:41:67 TRACK 33 AUDIO TITLE "Gießt ein, gießt ein, stoßt an stoßt an" PERFORMER "Erhardt" ISRC DES380840032 INDEX 01 36:09:69 TRACK 34 AUDIO TITLE "Bonus -Titel_Prélude D-Dur" PERFORMER "Erhardt" ISRC DES380840032 INDEX 01 37:05:58



Показать сообщения:    

Текущее время: 10-Дек 00:19

Часовой пояс: UTC + 3


Вы не можете начинать темы
Вы не можете отвечать на сообщения
Вы не можете редактировать свои сообщения
Вы не можете удалять свои сообщения
Вы не можете голосовать в опросах
Вы не можете прикреплять файлы к сообщениям
Вы не можете скачивать файлы