(Opera) Артур Блисс - Олимпийцы / Sir Arthur Bliss - The Olympians (Pashley, McAlpine, Herincx, Minty - Ambrosian Singers - Polyphonia Orchestra, Fairfax) - 2008, APE (image+.cue) lossless


 

[Цитировать]

Sir Arthur Bliss - The Olympians
Жанр: Opera
Страна-производитель диска: USA
Год издания диска: 2008
Издатель (лейбл): Opera D'Oro
Номер по каталогу: OPD 1480
Дата записи: 1972
Аудиокодек: APE
Тип рипа: image+.cue
Битрейт аудио: lossless
Продолжительность: 70'40+51'45
Источник: собственный рип
Наличие сканов в содержимом раздачи: да
Треклист:

CD1

1. Act I, Introduction
2. Act I, "Good morning, Madame Bardeau
3. Act I, "There is a troupe here of strolling players
4. Act I, "I am Hector de Florac
5. Act I, "Nonsense, nonsense, it is in the past
6. Act I, "No no, we don't want any more of that
7. Act I, "My friends and comrades of the theatre
8. Act I, "If you have finished, we will return to sense
9. Act I, "Be ready to perform it at my house
10. Act II, Introduction, Part 1
11. Act II, "Madeleine, I am here
12. Act II, "Ah! Ah

CD2

1. Act II, Introduction, Part 2
2. Act II, "Every man Jack of them!
3. Act II, "Hector, Hector, I am here
4. Act III, "Introduction
5. Act III, "You are kind
6. Act III, "So, marry me at once this very day!
7. Act III, "If Madeleine and the young poet love each other
8. Act III, "This house is clean of every evil spirit
Исполнители:
Sir Arthur Bliss - The Olympians
Madeleine - Ann Pashley, soprano
Hector de Florac - William McAlpine, tenor
Mars - Raimund Herincx, bass
Madame Bardeau - Shirley Minty, mezzo-soprano
The curé - Bernard Dickerson, tenor
Joseph Lavatte - Forbes Robinson, bass
Ambrosian Singers
Polyphonia Orchestra
Bryan Fairfax

Лог создания рипа

CD1

Exact Audio Copy V1.0 beta 6 from 9. April 2015
EAC extraction logfile from 21. September 2015, 16:08
Pashley, McAlpine, Herincx, Minty_Polyphonia Orchestra & Ambrosius Singers, Fairfax / Bliss - The Olympians, Fairfax CD1
Used drive : TS8XDVDSTRANSCEND Adapter: 1 ID: 1
Read mode : Secure
Utilize accurate stream : Yes
Defeat audio cache : Yes
Make use of C2 pointers : No
Read offset correction : 6
Overread into Lead-In and Lead-Out : No
Fill up missing offset samples with silence : Yes
Delete leading and trailing silent blocks : No
Null samples used in CRC calculations : Yes
Used interface : Native Win32 interface for Win NT & 2000
Used output format : Monkey's Audio Lossless Encoder
Selected bitrate : High Lossless Compression
Quality : High
Add ID3 tag : Yes
Command line compressor : C:\Program Files (x86)\Exact Audio Copy\MAC\MAC.exe
TOC of the extracted CD
Track | Start | Length | Start sector | End sector
---------------------------------------------------------
1 | 0:00.00 | 3:39.00 | 0 | 16424
2 | 3:39.00 | 4:14.00 | 16425 | 35474
3 | 7:53.00 | 3:55.00 | 35475 | 53099
4 | 11:48.00 | 7:05.00 | 53100 | 84974
5 | 18:53.00 | 6:17.00 | 84975 | 113249
6 | 25:10.00 | 11:53.00 | 113250 | 166724
7 | 37:03.00 | 4:02.00 | 166725 | 184874
8 | 41:05.00 | 3:40.00 | 184875 | 201374
9 | 44:45.00 | 4:43.00 | 201375 | 222599
10 | 49:28.00 | 6:00.00 | 222600 | 249599
11 | 55:28.00 | 6:36.00 | 249600 | 279299
12 | 62:04.00 | 8:34.25 | 279300 | 317874
Range status and errors
Selected range
Filename D:\EAC\Bliss - The Olympians, Fairfax CD1.wav
Peak level 100.0 %
Extraction speed 5.0 X
Range quality 99.9 %
Test CRC E163FF16
Copy CRC E163FF16
Copy OK
No errors occurred
AccurateRip summary
Track 1 cannot be verified as accurate (confidence 1) [110C5D8A], AccurateRip returned [5FE0E2A7] (AR v2)
Track 2 cannot be verified as accurate (confidence 1) [E7579D20], AccurateRip returned [9537DCAF] (AR v2)
Track 3 cannot be verified as accurate (confidence 1) [7681E792], AccurateRip returned [74328420] (AR v2)
Track 4 cannot be verified as accurate (confidence 1) [5AF30702], AccurateRip returned [A12B4E9A] (AR v2)
Track 5 cannot be verified as accurate (confidence 1) [C0433273], AccurateRip returned [EC277771] (AR v2)
Track 6 cannot be verified as accurate (confidence 1) [19DFA0FB], AccurateRip returned [37B43EC1] (AR v2)
Track 7 cannot be verified as accurate (confidence 1) [C58FBE27], AccurateRip returned [80A98F86] (AR v2)
Track 8 cannot be verified as accurate (confidence 1) [311888BD], AccurateRip returned [44FD55B6] (AR v2)
Track 9 cannot be verified as accurate (confidence 1) [762475A7], AccurateRip returned [B53094E6] (AR v2)
Track 10 cannot be verified as accurate (confidence 1) [EC8D6EBF], AccurateRip returned [485C9814] (AR v2)
Track 11 cannot be verified as accurate (confidence 1) [58BE59D0], AccurateRip returned [DFF48328] (AR v2)
Track 12 cannot be verified as accurate (confidence 1) [474E8F60], AccurateRip returned [2DD3EFE6] (AR v2)
No tracks could be verified as accurate
You may have a different pressing from the one(s) in the database
End of status report
---- CUETools DB Plugin V2.1.6
[CTDB TOCID: P7k_ibdigDLVeVS9SY96c5jU6Ac-] found
Submit result: unrecognized or virtual drive
Track | CTDB Status
1 | (1/1) Accurately ripped
2 | (1/1) Accurately ripped
3 | (1/1) Accurately ripped
4 | (1/1) Accurately ripped
5 | (1/1) Accurately ripped
6 | (1/1) Accurately ripped
7 | (1/1) Accurately ripped
8 | (1/1) Accurately ripped
9 | (1/1) Accurately ripped
10 | (1/1) Accurately ripped
11 | (1/1) Accurately ripped
12 | (1/1) Accurately ripped
==== Log checksum 4B14077AD2E5071B7AC4F239CB8E8EBEA7E858690D0515E006E5F2EFEC8848B3 ====

CD2

Exact Audio Copy V1.0 beta 6 from 9. April 2015
EAC extraction logfile from 21. September 2015, 15:26
Pashley, McAlpine, Herincx, Minty_Polyphonia Orchestra & Ambrosius Singers, Fairfax / Bliss - The Olympians, Fairfax CD2
Used drive : TS8XDVDSTRANSCEND Adapter: 1 ID: 1
Read mode : Secure
Utilize accurate stream : Yes
Defeat audio cache : Yes
Make use of C2 pointers : No
Read offset correction : 6
Overread into Lead-In and Lead-Out : No
Fill up missing offset samples with silence : Yes
Delete leading and trailing silent blocks : No
Null samples used in CRC calculations : Yes
Used interface : Native Win32 interface for Win NT & 2000
Used output format : Monkey's Audio Lossless Encoder
Selected bitrate : High Lossless Compression
Quality : High
Add ID3 tag : Yes
Command line compressor : C:\Program Files (x86)\Exact Audio Copy\MAC\MAC.exe
TOC of the extracted CD
Track | Start | Length | Start sector | End sector
---------------------------------------------------------
1 | 0:00.00 | 4:40.00 | 0 | 20999
2 | 4:40.00 | 6:30.00 | 21000 | 50249
3 | 11:10.00 | 9:53.50 | 50250 | 94774
4 | 21:03.50 | 7:05.00 | 94775 | 126649
5 | 28:08.50 | 3:15.00 | 126650 | 141274
6 | 31:23.50 | 4:39.00 | 141275 | 162199
7 | 36:02.50 | 5:16.00 | 162200 | 185899
8 | 41:18.50 | 10:32.25 | 185900 | 233324
Range status and errors
Selected range
Filename D:\EAC\Bliss - The Olympians, Fairfax CD2.wav
Peak level 100.0 %
Extraction speed 1.8 X
Range quality 100.0 %
Test CRC 28AE6571
Copy CRC 28AE6571
Copy OK
No errors occurred
AccurateRip summary
Track 1 accurately ripped (confidence 1) [DF242697] (AR v1)
Track 2 accurately ripped (confidence 1) [0526E8B9] (AR v1)
Track 3 accurately ripped (confidence 1) [49E0B0C7] (AR v1)
Track 4 accurately ripped (confidence 1) [E705B3B2] (AR v1)
Track 5 accurately ripped (confidence 1) [421900F2] (AR v1)
Track 6 accurately ripped (confidence 1) [E2FF3FC1] (AR v1)
Track 7 accurately ripped (confidence 1) [7DB57C62] (AR v1)
Track 8 accurately ripped (confidence 1) [FD19CD4D] (AR v1)
All tracks accurately ripped
End of status report
---- CUETools DB Plugin V2.1.6
[CTDB TOCID: CUKpLx4D5NVkxA91O9xkLP7p2Sc-] disk not present in database
Submit result: unrecognized or virtual drive
==== Log checksum 2FE03504F5EB29CD87601293FA6110FDBE30E37F871E5AA2EBBAB14E71500E78 ====

Содержание индексной карты (.CUE)

CD1

REM GENRE Opera
REM DATE 1972
REM DISCID 94108E0C
REM COMMENT "ExactAudioCopy v1.0b6"
PERFORMER "Pashley, McAlpine, Herincx, Minty_Polyphonia Orchestra & Ambrosius Singers, F..."
TITLE "Bliss - The Olympians, Fairfax CD1"
FILE "Bliss - The Olympians, Fairfax CD1.ape" WAVE
TRACK 01 AUDIO
TITLE "Bliss - The Olympians (Opera) - Act I - I. Introduction"
PERFORMER "Pashley, McAlpine, Herincx, Minty_Polyphonia Orchestra & Ambrosius Singers, F..."
FLAGS DCP
INDEX 01 00:00:00
TRACK 02 AUDIO
TITLE "Bliss - The Olympians (Opera) - Act I - II. Good morning, Madame Bardeau"
PERFORMER "Pashley, McAlpine, Herincx, Minty_Polyphonia Orchestra & Ambrosius Singers, F..."
INDEX 01 03:39:00
TRACK 03 AUDIO
TITLE "Bliss - The Olympians (Opera) - Act I - III. There is a troupe here of stroll..."
PERFORMER "Pashley, McAlpine, Herincx, Minty_Polyphonia Orchestra & Ambrosius Singers, F..."
INDEX 01 07:53:00
TRACK 04 AUDIO
TITLE "Bliss - The Olympians (Opera) - Act I - IV. I am Hector de Florac"
PERFORMER "Pashley, McAlpine, Herincx, Minty_Polyphonia Orchestra & Ambrosius Singers, F..."
INDEX 01 11:48:00
TRACK 05 AUDIO
TITLE "Bliss - The Olympians (Opera) - Act I - V. Nonsense, nonsense, it's in the past"
PERFORMER "Pashley, McAlpine, Herincx, Minty_Polyphonia Orchestra & Ambrosius Singers, F..."
INDEX 01 18:53:00
TRACK 06 AUDIO
TITLE "Bliss - The Olympians (Opera) - Act I - VI. No, no, we don't want any more of..."
PERFORMER "Pashley, McAlpine, Herincx, Minty_Polyphonia Orchestra & Ambrosius Singers, F..."
INDEX 01 25:10:00
TRACK 07 AUDIO
TITLE "Bliss - The Olympians (Opera) - Act I - VII. My friends and comrades of the t..."
PERFORMER "Pashley, McAlpine, Herincx, Minty_Polyphonia Orchestra & Ambrosius Singers, F..."
INDEX 01 37:03:00
TRACK 08 AUDIO
TITLE "Bliss - The Olympians (Opera) - Act I - VIII. If you have finished, we will r..."
PERFORMER "Pashley, McAlpine, Herincx, Minty_Polyphonia Orchestra & Ambrosius Singers, F..."
FLAGS DCP
INDEX 01 41:05:00
TRACK 09 AUDIO
TITLE "Bliss - The Olympians (Opera) - Act I - IX. Be ready to perform it at my house"
PERFORMER "Pashley, McAlpine, Herincx, Minty_Polyphonia Orchestra & Ambrosius Singers, F..."
INDEX 01 44:45:00
TRACK 10 AUDIO
TITLE "Bliss - The Olympians (Opera) - Act II - I. Introduction"
PERFORMER "Pashley, McAlpine, Herincx, Minty_Polyphonia Orchestra & Ambrosius Singers, F..."
INDEX 01 49:28:00
TRACK 11 AUDIO
TITLE "Bliss - The Olympians (Opera) - Act II - II. Madeleine, I am here"
PERFORMER "Pashley, McAlpine, Herincx, Minty_Polyphonia Orchestra & Ambrosius Singers, F..."
INDEX 01 55:28:00
TRACK 12 AUDIO
TITLE "Bliss - The Olympians (Opera) - Act II - III. Ah! Ah!"
PERFORMER "Pashley, McAlpine, Herincx, Minty_Polyphonia Orchestra & Ambrosius Singers, F..."
INDEX 01 62:04:00

CD2

REM GENRE Opera
REM DATE 1972
REM DISCID 6C0C2708
REM COMMENT "ExactAudioCopy v1.0b6"
PERFORMER "Pashley, McAlpine, Herincx, Minty_Polyphonia Orchestra & Ambrosius Singers, F..."
TITLE "Bliss - The Olympians, Fairfax CD2"
FILE "Bliss - The Olympians, Fairfax CD2.ape" WAVE
TRACK 01 AUDIO
TITLE "Bliss - The Olympians (Opera) - Act II - IV. Introduction to Act II, Part 2"
PERFORMER "Pashley, McAlpine, Herincx, Minty_Polyphonia Orchestra & Ambrosius Singers, F..."
INDEX 01 00:00:00
TRACK 02 AUDIO
TITLE "Bliss - The Olympians (Opera) - Act II - V. Every man Jack of them"
PERFORMER "Pashley, McAlpine, Herincx, Minty_Polyphonia Orchestra & Ambrosius Singers, F..."
INDEX 01 04:40:00
TRACK 03 AUDIO
TITLE "Bliss - The Olympians (Opera) - Act II - VI. Hector, Hector, I am here"
PERFORMER "Pashley, McAlpine, Herincx, Minty_Polyphonia Orchestra & Ambrosius Singers, F..."
INDEX 01 11:10:00
TRACK 04 AUDIO
TITLE "Bliss - The Olympians (Opera) - Act III - I. Introduction"
PERFORMER "Pashley, McAlpine, Herincx, Minty_Polyphonia Orchestra & Ambrosius Singers, F..."
INDEX 01 21:03:50
TRACK 05 AUDIO
TITLE "Bliss - The Olympians (Opera) - Act III - II. You are kind"
PERFORMER "Pashley, McAlpine, Herincx, Minty_Polyphonia Orchestra & Ambrosius Singers, F..."
INDEX 01 28:08:50
TRACK 06 AUDIO
TITLE "Bliss - The Olympians (Opera) - Act III - III. So, marry me at once this very..."
PERFORMER "Pashley, McAlpine, Herincx, Minty_Polyphonia Orchestra & Ambrosius Singers, F..."
INDEX 01 31:23:50
TRACK 07 AUDIO
TITLE "Bliss - The Olympians (Opera) - Act III - IV. If Madeleine and the young poet"
PERFORMER "Pashley, McAlpine, Herincx, Minty_Polyphonia Orchestra & Ambrosius Singers, F..."
INDEX 01 36:02:50
TRACK 08 AUDIO
TITLE "Bliss - The Olympians (Opera) - Act III - V. This house is clean of every evi..."
PERFORMER "Pashley, McAlpine, Herincx, Minty_Polyphonia Orchestra & Ambrosius Singers, F..."
INDEX 01 41:18:50
Доп. информация:
Synopsis
Legend has it that when men ceased to believe in the Gods of Olympus, some of the gods became a group of strolling players, walking through Europe over the centuries. Once every 100 years however, at midsummer, these players find themselves again with their divine powers.
Time: 1836, at midsummer
Setting: Berasson, a small town in the south of France
Act 1
A large room at the Golden Duck tavern
After bustle of travellers departing, Madame Bardeau is seen entertaining the curé. She owes money to Lavatte, the richest (and meanest) man in the town. While explaining all this, she sees a porter loading luggage belonging to a group of strolling players who owe her money. The curé agrees to intercede with Lavatte if she will be generous with the players. Lavatte enters and announces that he is giving a party that night to mark the engagement of his daughter Madeleine to a local nobleman (who it turns out is too old to become her husband). The curé suggests that Lavatte gets the players to entertain his guests that night – they will come cheap if he agrees to allow Madame Bardeau to have more time to pay her debt. The curé is joined by Hector, a young poet on his way to Paris, and when the curé has left and Madeleine enters in search of her father, it becomes clear that the two young people are falling in love. When Lavatte returns he angrily takes Madeleine away, closely followed by Hector. The players enter: Mercury (their dancer), Venus, Diana, Mars, Bacchus and Jupiter, the manager of the troupe. Diana is fed up with the roving life and wants a change, but Jupiter reminds them that down the centuries they have known many hardships and must stick together. Hector enters and stands them all wine, and when Lavatte comes in they offer to perform their ‘Comedy of Olympus’. Lavatte drives a hard bargain with them before leaving, but refuses to allow Hector to come to the party. The players become animated and jubilant, while Hector declares his love for Madeleine, and Madame Bardeau complains about all the noise.
Act 2
A large courtyard outside Lavatte’s house, the moon rising.
Madeleine comes out, unhappy because Hector has not been invited, but he, in disguise reveals himself and they ecstatically proclaim their love. There are cries from the house as Mercury comes out, and casts a spell on the lovers, who fall asleep. Guests emerge from the house and hear Diana sing of the joy of the hunt, then leading some off with her voice dying away in the distance. It is midnight and a group of male guests and Mars come onto the terrace and sing of war before they too go off; Lavatte is angry with the antics of the gods. Venus and Bacchus then appear, along with the rest of Lavatte’s guests. Hector is taken with Venus’s beauty.
Jupiter lectures all on the power of the old gods, telling them not to desert the ancient ways of mankind. Diana and Mars reappear, so all the gods apart from Mercury are together. Lavatte comes back into the courtyard with some police, and despite Jupiter’s warning, calls on the police to arrest the gods; Jupiter sets the thunder rumbling and a thunderbolt knocks Lavatte to the ground.
Act 3
Outside Lavatte’s house, where the players were to have staged their performance.
Morning is approaching; the gods’ powers are waning. Diana sings a lament. Madeleine is unhappy as Hector is still fascinated by Venus; Jupiter comforts her and she forgives Hector and agrees to marry him. As the day breaks, Lavatte comes in, desperate to rid himself of the night’s magic, followed by the curé who claims to have found a way to exorcise the magic: Lavatte must provide gold to make a magic circle and to allow his daughter to follow her heart’s will. A mock exorcising ceremony is started, and the players – as shabby as they were in Act 1 – enter and ask for their pay and a testimonial. Lavatte agrees, and as the sun rises, guests and servants come on the scene and sing a bridal chorus for Madeleine - as the players start again on their travels.



Показать сообщения:    

Текущее время: 03-Дек 22:47

Часовой пояс: UTC + 3


Вы не можете начинать темы
Вы не можете отвечать на сообщения
Вы не можете редактировать свои сообщения
Вы не можете удалять свои сообщения
Вы не можете голосовать в опросах
Вы не можете прикреплять файлы к сообщениям
Вы не можете скачивать файлы