(Opera) Юлиус Биттнер - Горное озеро / Bittner - Der Bergsee (Konetzni, Treptow, Patzak, Wachter - Wiener Staatsopernchor & Orchester, Prohaska) - 2006, APE (image+.cue) lossless


 

[Цитировать]

Julius Bittner - Der Bergsee
Жанр: Opera
Страна-производитель диска: Germany
Год издания диска: 2006
Издатель (лейбл): Cantus Classics
Номер по каталогу: 5.00858
Дата записи: 1953
Аудиокодек: APE
Тип рипа: image+.cue
Битрейт аудио: lossless
Продолжительность: 45'21+46'49
Источник: собственный рип
Наличие сканов в содержимом раздачи: да
Треклист:

CD1

1. Prologue: Vorspiel
2. Prologue: 'Einsam tu ich hier stehen'
3. Prologue: 'Wer da? Die Losung!'
4. Prologue: 'Mann auf Wacht! Was meldet er?'
5. Prologue: 'Unrecht über den Leuten'
6. Act 1: Vorspiel
7. Act 1: 'Was drin?'
8. Act 1: 'Sonnkar! Sonnkar!'
9. Act 1: 'Leut'! Leut'! Aufwachen!'
10. Act 1: 'Hast dich hart plagen müssen'
11. Act 1: 'Und ich stehe da'

CD2

1. Act 1: 'Wer da!'
2. Act 1: 'Na, Gott sei Dank'
3. Act 1: 'Und nun, Leut' vom Achental'
4. Act 2: 'Hinhaun! Hinhaun!'
5. Act 2: 'Und nun sag ich euch: 'nunter!'
6. Act 2: 'Hast mir die Hütten woll'n'
7. Act 2: 'Bind' mich los, Knecht!'
8. Act 2: 'Frei! Wie machen wir es aus!'
9. Act 2: 'Was wollt ihr da'
10. Act 2: 'Bleib bei mir Jörg'
11. Act 2: 'Leb' wohl, Gundula, leb' wohl!'
12. Act 2: 'Mein Leben ward zunichte'
Исполнители:
Julius Bittner - Der Bergsee
Hilde Konetzni, soprano
Günther Treptow, tenor
Julius Patzak, tenor
Eberhard Wächter, tenor
Karl Kamann, bariton
Wiener Staatsopernchor
Wiener Staatsopernorchester
Felix Prohaska

Лог создания рипа

CD1

Exact Audio Copy V1.0 beta 6 from 9. April 2015
EAC extraction logfile from 28. September 2015, 15:20
Konetzni, Treptow, Patzak - Wiener Staatsopernchor und Orchester, Prohaska / Bittner - Der Bergsee, Prohaska CD1
Used drive : TSSTcorpCDDVDW SE-208AB Adapter: 1 ID: 2
Read mode : Secure
Utilize accurate stream : Yes
Defeat audio cache : Yes
Make use of C2 pointers : No
Read offset correction : 6
Overread into Lead-In and Lead-Out : No
Fill up missing offset samples with silence : Yes
Delete leading and trailing silent blocks : No
Null samples used in CRC calculations : Yes
Used interface : Native Win32 interface for Win NT & 2000
Used output format : Monkey's Audio Lossless Encoder
Selected bitrate : High Lossless Compression
Quality : High
Add ID3 tag : Yes
Command line compressor : C:\Program Files (x86)\Exact Audio Copy\MAC\MAC.exe
TOC of the extracted CD
Track | Start | Length | Start sector | End sector
---------------------------------------------------------
1 | 0:00.00 | 5:29.06 | 0 | 24680
2 | 5:29.06 | 1:01.15 | 24681 | 29270
3 | 6:30.21 | 2:57.58 | 29271 | 42603
4 | 9:28.04 | 4:00.49 | 42604 | 60652
5 | 13:28.53 | 9:16.38 | 60653 | 102390
6 | 22:45.16 | 3:39.22 | 102391 | 118837
7 | 26:24.38 | 5:18.66 | 118838 | 142753
8 | 31:43.29 | 4:18.53 | 142754 | 162156
9 | 36:02.07 | 1:10.30 | 162157 | 167436
10 | 37:12.37 | 4:12.67 | 167437 | 186403
11 | 41:25.29 | 3:56.01 | 186404 | 204104
Range status and errors
Selected range
Filename D:\EAC\Bittner - Der Bergsee, Prohaska CD1.wav
Peak level 100.0 %
Extraction speed 1.9 X
Range quality 99.9 %
Test CRC A1509957
Copy CRC A1509957
Copy OK
No errors occurred
AccurateRip summary
Track 1 accurately ripped (confidence 1) [ECAB5AA9] (AR v1)
Track 2 accurately ripped (confidence 1) [106E342D] (AR v1)
Track 3 accurately ripped (confidence 1) [158340CD] (AR v1)
Track 4 accurately ripped (confidence 1) [621F0742] (AR v1)
Track 5 accurately ripped (confidence 1) [027E19A2] (AR v1)
Track 6 accurately ripped (confidence 1) [15FFFA0D] (AR v1)
Track 7 accurately ripped (confidence 1) [64DE496C] (AR v1)
Track 8 accurately ripped (confidence 1) [1BD91A6C] (AR v1)
Track 9 accurately ripped (confidence 1) [9C95924F] (AR v1)
Track 10 accurately ripped (confidence 1) [6D25DF73] (AR v1)
Track 11 accurately ripped (confidence 1) [90A2CC58] (AR v1)
All tracks accurately ripped
End of status report
---- CUETools DB Plugin V2.1.6
[CTDB TOCID: AyGTpKGLM2Iso8hJpBMhJLc_kKw-] disk not present in database
Submit result: AyGTpKGLM2Iso8hJpBMhJLc_kKw- has been uploaded
==== Log checksum B44886353DD513C1A5F6A09ACC44BC7A419D4F8E75183046776A21E9B07AFA16 ====

CD2

Exact Audio Copy V1.0 beta 6 from 9. April 2015
EAC extraction logfile from 28. September 2015, 15:08
Konetzni, Treptow, Patzak - Wiener Staatsopernchor und Orchester, Prohaska / Bittner - Der Bergsee, Prohaska CD2
Used drive : TS8XDVDSTRANSCEND Adapter: 1 ID: 1
Read mode : Secure
Utilize accurate stream : Yes
Defeat audio cache : Yes
Make use of C2 pointers : No
Read offset correction : 6
Overread into Lead-In and Lead-Out : No
Fill up missing offset samples with silence : Yes
Delete leading and trailing silent blocks : No
Null samples used in CRC calculations : Yes
Used interface : Native Win32 interface for Win NT & 2000
Used output format : Monkey's Audio Lossless Encoder
Selected bitrate : High Lossless Compression
Quality : High
Add ID3 tag : Yes
Command line compressor : C:\Program Files (x86)\Exact Audio Copy\MAC\MAC.exe
TOC of the extracted CD
Track | Start | Length | Start sector | End sector
---------------------------------------------------------
1 | 0:00.00 | 4:01.15 | 0 | 18089
2 | 4:01.15 | 4:06.53 | 18090 | 36592
3 | 8:07.68 | 6:41.55 | 36593 | 66722
4 | 14:49.48 | 2:29.07 | 66723 | 77904
5 | 17:18.55 | 3:17.08 | 77905 | 92687
6 | 20:35.63 | 3:14.37 | 92688 | 107274
7 | 23:50.25 | 3:29.32 | 107275 | 122981
8 | 27:19.57 | 2:20.65 | 122982 | 133546
9 | 29:40.47 | 2:28.16 | 133547 | 144662
10 | 32:08.63 | 2:08.50 | 144663 | 154312
11 | 34:17.38 | 4:35.19 | 154313 | 174956
12 | 38:52.57 | 7:56.54 | 174957 | 210710
Range status and errors
Selected range
Filename D:\EAC\Bittner - Der Bergsee, Prohaska CD2.wav
Peak level 100.0 %
Extraction speed 1.9 X
Range quality 100.0 %
Test CRC A34D4D5D
Copy CRC A34D4D5D
Copy OK
No errors occurred
AccurateRip summary
Track 1 accurately ripped (confidence 1) [61AFEC51] (AR v1)
Track 2 accurately ripped (confidence 1) [9F35BFCF] (AR v1)
Track 3 accurately ripped (confidence 1) [388B5D21] (AR v1)
Track 4 accurately ripped (confidence 1) [B4CFA715] (AR v1)
Track 5 accurately ripped (confidence 1) [2A581417] (AR v1)
Track 6 accurately ripped (confidence 1) [917B048F] (AR v1)
Track 7 accurately ripped (confidence 1) [FF13C32A] (AR v1)
Track 8 accurately ripped (confidence 1) [07F63266] (AR v1)
Track 9 accurately ripped (confidence 1) [BD8DF500] (AR v1)
Track 10 accurately ripped (confidence 1) [B1981405] (AR v1)
Track 11 accurately ripped (confidence 1) [A1FC0779] (AR v1)
Track 12 accurately ripped (confidence 1) [80AA7F7E] (AR v1)
All tracks accurately ripped
End of status report
---- CUETools DB Plugin V2.1.6
[CTDB TOCID: rl_ee4B4AlTaEnbacpDRL7Ghmfo-] disk not present in database
Submit result: unrecognized or virtual drive
==== Log checksum BAF0928F5AE45CFDA11C502F2A79BDC7F17AE873E8B5FAC5422C490ABDFE2979 ====

Содержание индексной карты (.CUE)

CD1

REM GENRE Opera
REM DATE 1953
REM DISCID 8D0AA10B
REM COMMENT "ExactAudioCopy v1.0b6"
PERFORMER "Konetzni, Treptow, Patzak - Wiener Staatsopernchor und Orchester, Prohaska"
TITLE "Bittner - Der Bergsee, Prohaska CD1"
FILE "Bittner - Der Bergsee, Prohaska CD1.ape" WAVE
TRACK 01 AUDIO
TITLE "Prologue: Vorspiel"
PERFORMER "Konetzni, Treptow, Patzak - Wiener Staatsopernchor und Orchester, Prohaska"
INDEX 01 00:00:00
TRACK 02 AUDIO
TITLE "Prologue: 'Einsam tu ich hier stehen'"
PERFORMER "Konetzni, Treptow, Patzak - Wiener Staatsopernchor und Orchester, Prohaska"
INDEX 01 05:29:06
TRACK 03 AUDIO
TITLE "Prologue: 'Wer da? Die Losung!'"
PERFORMER "Konetzni, Treptow, Patzak - Wiener Staatsopernchor und Orchester, Prohaska"
INDEX 01 06:30:21
TRACK 04 AUDIO
TITLE "Prologue: 'Mann auf Wacht! Was meldet er?'"
PERFORMER "Konetzni, Treptow, Patzak - Wiener Staatsopernchor und Orchester, Prohaska"
INDEX 01 09:28:04
TRACK 05 AUDIO
TITLE "Prologue: 'Unrecht über den Leuten'"
PERFORMER "Konetzni, Treptow, Patzak - Wiener Staatsopernchor und Orchester, Prohaska"
INDEX 01 13:28:53
TRACK 06 AUDIO
TITLE "Act 1: Vorspiel"
PERFORMER "Konetzni, Treptow, Patzak - Wiener Staatsopernchor und Orchester, Prohaska"
INDEX 01 22:45:16
TRACK 07 AUDIO
TITLE "Act 1: 'Was drin?'"
PERFORMER "Konetzni, Treptow, Patzak - Wiener Staatsopernchor und Orchester, Prohaska"
INDEX 01 26:24:38
TRACK 08 AUDIO
TITLE "Act 1: 'Sonnkar! Sonnkar!'"
PERFORMER "Konetzni, Treptow, Patzak - Wiener Staatsopernchor und Orchester, Prohaska"
INDEX 01 31:43:29
TRACK 09 AUDIO
TITLE "Act 1: 'Leut'! Leut'! Aufwachen!'"
PERFORMER "Konetzni, Treptow, Patzak - Wiener Staatsopernchor und Orchester, Prohaska"
INDEX 01 36:02:07
TRACK 10 AUDIO
TITLE "Act 1: 'Hast dich hart plagen müssen'"
PERFORMER "Konetzni, Treptow, Patzak - Wiener Staatsopernchor und Orchester, Prohaska"
INDEX 01 37:12:37
TRACK 11 AUDIO
TITLE "Act 1: 'Und ich stehe da'"
PERFORMER "Konetzni, Treptow, Patzak - Wiener Staatsopernchor und Orchester, Prohaska"
INDEX 01 41:25:29

CD2

REM GENRE Opera
REM DATE 1953
REM DISCID 950AF90C
REM COMMENT "ExactAudioCopy v1.0b6"
PERFORMER "Konetzni, Treptow, Patzak - Wiener Staatsopernchor und Orchester, Prohaska"
TITLE "Bittner - Der Bergsee, Prohaska CD2"
FILE "Bittner - Der Bergsee, Prohaska CD2.ape" WAVE
TRACK 01 AUDIO
TITLE "Act 1: 'Wer da!'"
PERFORMER "Konetzni, Treptow, Patzak - Wiener Staatsopernchor und Orchester, Prohaska"
INDEX 01 00:00:00
TRACK 02 AUDIO
TITLE "Act 1: 'Na, Gott sei Dank'"
PERFORMER "Konetzni, Treptow, Patzak - Wiener Staatsopernchor und Orchester, Prohaska"
INDEX 01 04:01:15
TRACK 03 AUDIO
TITLE "Act 1: 'Und nun, Leut' vom Achental'"
PERFORMER "Konetzni, Treptow, Patzak - Wiener Staatsopernchor und Orchester, Prohaska"
INDEX 01 08:07:68
TRACK 04 AUDIO
TITLE "Act 2: 'Hinhaun! Hinhaun!'"
PERFORMER "Konetzni, Treptow, Patzak - Wiener Staatsopernchor und Orchester, Prohaska"
INDEX 01 14:49:48
TRACK 05 AUDIO
TITLE "Act 2: 'Und nun sag ich euch: 'nunter!'"
PERFORMER "Konetzni, Treptow, Patzak - Wiener Staatsopernchor und Orchester, Prohaska"
INDEX 01 17:18:55
TRACK 06 AUDIO
TITLE "Act 2: 'Hast mir die Hütten woll'n'"
PERFORMER "Konetzni, Treptow, Patzak - Wiener Staatsopernchor und Orchester, Prohaska"
INDEX 01 20:35:63
TRACK 07 AUDIO
TITLE "Act 2: 'Bind' mich los, Knecht!'"
PERFORMER "Konetzni, Treptow, Patzak - Wiener Staatsopernchor und Orchester, Prohaska"
INDEX 01 23:50:25
TRACK 08 AUDIO
TITLE "Act 2: 'Frei! Wie machen wir es aus!'"
PERFORMER "Konetzni, Treptow, Patzak - Wiener Staatsopernchor und Orchester, Prohaska"
INDEX 01 27:19:57
TRACK 09 AUDIO
TITLE "Act 2: 'Was wollt ihr da'"
PERFORMER "Konetzni, Treptow, Patzak - Wiener Staatsopernchor und Orchester, Prohaska"
INDEX 01 29:40:47
TRACK 10 AUDIO
TITLE "Act 2: 'Bleib bei mir Jörg'"
PERFORMER "Konetzni, Treptow, Patzak - Wiener Staatsopernchor und Orchester, Prohaska"
INDEX 01 32:08:63
TRACK 11 AUDIO
TITLE "Act 2: 'Leb' wohl, Gundula, leb' wohl!'"
PERFORMER "Konetzni, Treptow, Patzak - Wiener Staatsopernchor und Orchester, Prohaska"
INDEX 01 34:17:38
TRACK 12 AUDIO
TITLE "Act 2: 'Mein Leben ward zunichte'"
PERFORMER "Konetzni, Treptow, Patzak - Wiener Staatsopernchor und Orchester, Prohaska"
INDEX 01 38:52:57
Доп. информация:
“Julius Bittner became one of the best known and most performed Austrian opera composers in the first half of the 20th Century. Many of his operas deal with Austrian-Alpine themes. He usually wrote his own libretti. After the Second World War, however, as a typical representative of late Romantic opera in the tradition of Richard Wagner, he was gradually forgotten. Critics gave him the somewhat derogatory nickname ‘the Anzengruber of the opera’; in importance he is comparable to his better known contemporary Wilhelm Kienzl http://rutracker.org/forum/viewtopic.php?t=4956299 . As a lawyer and leading member of Vienna's judiciary and close friend of Gustav Mahler, he assessed Mahler’s estate for probate after his death. He later won the Mahler Prize in 1915. He composed many operas, two symphonies and many songs and was helped and promoted by Mahler and Bruno Walter. He was also a close friend of Erich Wolfgang Korngold and Franz Schmidt. He was for a while editor of the Austrian music journal Der Merker and wrote music criticism for it and other newspapers. He was so influential that he was able to arrange Arnold Schönberg's release from active military service in the First World War.
He received numerous awards and honors and became a member of the German Academy of Arts in Berlin in 1925. In 1964, the archive containing almost all of his works (autograph sketches, text books, scores and piano reductions) was taken over by the Vienna City Library.”



Показать сообщения:    

Текущее время: 09-Дек 22:24

Часовой пояс: UTC + 3


Вы не можете начинать темы
Вы не можете отвечать на сообщения
Вы не можете редактировать свои сообщения
Вы не можете удалять свои сообщения
Вы не можете голосовать в опросах
Вы не можете прикреплять файлы к сообщениям
Вы не можете скачивать файлы