(Classical) Теллефсен – Все опубликованные сочинения для фортепиано; Соната для двух фортепиано [4 CDs] / Tellefsen – Complete published piano works (Malgorzata Jaworska, Joanna Lawrynowicz, Krystyna Makowska) - 2000-2007, FLAC (image+.cue) lossless


 

[Цитировать]

[Chopin's Disciples I — IV]
Теллефсен – Все опубликованные сочинения для фортепиано; Соната для двух фортепиано [4 CDs] / Tellefsen – Complete published piano works (Małgorzata Jaworska) & Sonata for two pianos (Joanna Ławrynowicz, Krystyna Makowska)
Жанр: Classical
Страна-производитель диска: Польша?
Год издания диска: 2000-2007
Издатель (лейбл): Acte Préalable
Номер по каталогу: ΑP0049, ΑP0062, ΑP0064, ΑP0154
Дата записи:
20 — 21 декабря 1999 г. (I);
28—29 июля 2000 г. (II и III);
26 июня 2001 г. (III);
июль 2006 г. (IV);
февраль 2007 г. (IV), Варшава.
Аудиокодек: FLAC
Тип рипа: image+.cue
Битрейт аудио: lossless
Продолжительность: 01:10:32 + 01:08:22 + 01:07:19 + 00:58:08
Источник: odeonmusic
Наличие сканов в содержимом раздачи: да
Треклист:-Томас Дюк Акланд Теллефсен (1823 — 1874).
Полное собрание опубликованных сочинений для фортепиано.
Соната для двух фортепиано.-Cd 1.
Четыре мазурки, op. 1.
Три блестящих вальса, op. 5.
Соната c-moll, op. 13.
«Маленькая нищенка» e-moll, op. 23.
Большая мазурка B-dur, op. 24.
[Два больших вальса], op. 30.
«Сквозь сон» As-dur, op. 34.
Ноктюрн № 4 Ges-dur, op. 39.
«Праздник в Вальгалле» g-moll (G-dur), норвежский танец № 3, op. 40.
Cd 2.
Элегия f-moll [памяти принца Густава Шведского], op. 7.
Шесть мазурок, op. 14.
Листки из альбома, op. 16.
Большой полонез cis-moll, op. 18
Allegretto A-dur, op. 20
Большой этюд cis-moll, op. 25.
Торжественный марш Es-dur, op. 29.
Экспромт g-moll, op. 38.
Cd 3.
Ноктюрн № 1 F-dur, op. 2.
Четыре мазурки, op. 3.
Тарантелла Es-dur, op. 6.
«Танец хюльдр» (Huldredansen) g-moll, норвежский танец [№ 1], op. 9.
Адажио и рондо h-moll, op. 10.
Ноктюрн № 3 g-moll, op. 17.
«Свадебная мелодия» D-dur, норвежский танец [№ 2], op. 26.
Вальс [№ 4] Des-dur, op. 27.
Баллада c-moll, op. 28.
Мазурка A-dur, польский танец, op. 33.
«Шотландские напевы» A-dur, op. 42.
Павана королевы Елизаветы cis-moll, op. 44.
Cd 4.
Ноктюрн № 2 E-dur, op. 11.
Тема и фантазия b-moll, op. 12.
Токката F-dur, op. 22.
Каприччио appassionato h-moll, op. 36.
Соната h-moll для двух фортепиано, op. 41.
Этюд-упражнение на сексты E-dur, op. 43.-

Подробный треклист

Томас Дюк Акланд Теллефсен (1823 — 1874).
Полное собрание опубликованных сочинений для фортепиано.
Соната для двух фортепиано.-Cd 1.
Четыре мазурки, op. 1 (опубл. 1846?).
01. № 1 A-dur. Allegro [03:15].
02. № 2 a-moll. Allegro [03:08].
03. № 3 e-moll. Moderato [03:14].
04. № 4 A-dur. Moderato [02:02].
Большая мазурка B-dur, op. 24 (опубл. 1858).
05. [Без указания темпа] [05:48].
«Праздник в Вальгалле» (Walhallafesten — Fête à Valhalle) g-moll (G-dur), норвежский танец № 3, op. 40 (опубл. 1870?).
06. Moderato [05:30].
Ноктюрн № 4 Ges-dur, op. 39 (опубл. 1872).
07. Andante [05:09].
Соната для фортепиано c-moll, op. 13 (1848?, опубл. 1853?).
08. I. Allegro moderato [06:36].
09. II. Adagio [08:16].
10. III. Rondo. Vivace [04:06].
Три блестящих вальса, op. 5 (опубл. 1851?).
11. № 1 (1) As-dur. [Без указания темпа] [01:38].
12. № 2 (2) G-dur. Vivace [01:44].
13. № 3 (3) e-moll. Allegro moderato [04:19].
[Два больших вальса], op. 30 (опубл. 1861).
14. № 1 (5) F-dur. Moderato [04:35].
15. № 2 (6) f-moll. Moderato [04:54].
«Сквозь сон» (Au travers d'un songe) As-dur, op. 34 (опубл. 1868).
16. Andante [03:59].
«Маленькая нищенка» (La petite mendiante) e-moll, op. 23 (опубл. 1858).
17. Allegro ma non troppo [02:11].-Cd 2.
Большой этюд cis-moll, op. 25 (опубл. 1858).
01. Allegro [04:18].
Листки из альбома, op. 16 (опубл. 1855).
02. № 1 B-dur. Allegro moderato [01:48].
03. № 2 As-dur. Lento [03:08].
04. № 3 c-moll. Похоронный марш [07:56].
Экспромт g-moll, op. 38 (опубл. 1872).
05. Allegro [03:53].
Элегия f-moll [памяти принца Густава Шведского], op. 7 (опубл. 1853).
06. Molto adagio. — Cantabile lamentoso. — Dolce con anima. — [«Hvo veed hvor nær mig er min Ende?»] [08:11].
Allegretto A-dur, op. 20 (опубл. 1856).
07. Simplice [03:03].
Большой полонез cis-moll, op. 18 (1855).
08. Moderato. — Alla polacca. — Cantabile. — [Tempo I] [09:12].
Шесть мазурок, op. 14 (ок. 1853 — 1854).
Тетрадь I.
09. № 1 d-moll. Allegro [03:48].
10. № 2 G-dur «Хоровод» (La Ronde). Leggiero [02:00].
Тетрадь II.
11. № 3 f-moll. Leggiero [04:28].
12. № 4 F-dur. Moderato [02:25].
Тетрадь III.
13. № 5 D-dur. Allegro vivace [03:23].
14. № 6 c-moll. Lento simplice [02:29].
Торжественный марш (Marche triomphale) Es-dur, op. 29 (опубл. 1861).
15. Allegro moderato, maestoso [08:13].- Cd 3.
Вальс [№ 4] Des-dur, op. 27 (опубл. 1858).
01. Moderato [03:39].
Баллада c-moll, op. 28 (опубл. 1860).
02. Allegretto [04:08].
Мазурка A-dur, польский танец, op. 33 (опубл. 1864/1865?).
03. [Без указания темпа] [05:52].
Тарантелла Es-dur, op. 6 (опубл. 1853).
04. Molto vivace [04:07].
Ноктюрн № 3 g-moll, op. 17 (опубл. 1855).
05. Adagio ma non troppo [04:40].
Адажио и рондо h-moll, op. 10 (опубл. 1853).
06. Adagio. — Cantabile. — [Рондо.] Allegro moderato [09:37].
Четыре мазурки, op. 3 (опубл. 1849).
07. № 1 g-moll. Moderato [02:03].
08. № 2 G-dur. Vivace [02:31].
09. № 3 B-dur. Allegro vivace [01:49].
10. № 4 fis-moll. Mesto [03:33].
«Свадебная мелодия» (Bruraslaatten) D-dur, норвежский танец [№ 2], op. 26 (опубл. 1858?).
11. Maestoso. — Mysterioso. — Maestoso. — [Кода] [03:55].
«Танец хюльдр» (Huldredansen) g-moll, норвежский танец [№ 1], op. 9 (опубл. 1853).
12. Allegro moderato [03:01].
«Шотландские напевы» (Mélodies écossaises) A-dur, op. 42 (опубл. ок. 1868).
13. Andante con moto. — Cadenza. — Con espressi[one]. — Leggiero [07:41].
Ноктюрн № 1 F-dur, op. 2 (опубл. 1849).
14. Andante cantabile [04:12].
Павана королевы Елизаветы cis-moll, op. 44 (опубл. ок. 1870).
15. Andante noblement [06:25].- Cd 4.
Тема (Thème original) и фантазия b-moll, op. 12 (опубл. 1855?).
01. Вступление. Largo. —
(02.) — Тема. Andante. —
(03.) — [Вариация I.] —
(04.) — [Вариация II.] —
(05.) — [Вариация III.] —
(06.) — Adagio cantabile. —
(07.) — Tempo I. —
(08.) — [Кода.] Con brio [10:58].
Токката F-dur, op. 22 (опубл. 1857).
02. Allegro [09:34].
Этюд-упражнение на сексты E-dur, op. 43 (опубл. ок. 1867).
03. Allegro [02:56].
Каприччио appassionato h-moll, op. 36 (опубл. 1868?).
04. Allegro non troppo [06:08].
Ноктюрн № 2 E-dur, op. 11 (опубл. 1853).
05. Andante cantabile [03:05].
Соната h-moll для двух фортепиано, op. 41 (1870?; опубл. 1872?).
06. I. Allegro maestoso [12:32].
07. II. Andante [04:39].
08. III. Finale. Moderato [08:12].
-Исполнители:
Małgorzata Jaworska (фортепиано).
Joanna Ławrynowicz (фортепиано, IV 6 — 8),
Krystyna Makowska (фортепиано, IV 6 — 8).-

Логи создания рипаCD 1.

Exact Audio Copy V1.0 beta 3 from 29. August 2011
EAC extraction logfile from 27. August 2012, 11:35
Malgorzata Jaworska / Tellefsen - Piano works (Vol.1) - Jaworska
Used drive : HL-DT-STDVDRAM GSA-H10A Adapter: 0 ID: 0
Read mode : SecureUtilize accurate stream : YesDefeat audio cache : YesMake use of C2 pointers : No
Read offset correction : 667Overread into Lead-In and Lead-Out : NoFill up missing offset samples with silence : YesDelete leading and trailing silent blocks : NoNull samples used in CRC calculations : YesUsed interface : Native Win32 interface for Win NT & 2000
Used output format : User Defined EncoderSelected bitrate : 1024 kBit/sQuality : HighAdd ID3 tag : NoCommand line compressor : C:\Program Files\Exact Audio Copy\Flac\flac.exeAdditional command line options : -8 -V -T "TITLE=%title%" -T "ARTIST=%artist%" -T "ALBUMARTIST=%albumartist%" -T "ALBUM=%albumtitle%" -T "DATE=%year%" -T "TRACKNUMBER=%tracknr%" -T "TRACKTOTAL=%numtracks%" -T "GENRE=%genre%" -T "COMMENT=%comment%" -T "PERFORMER=%albuminterpret%" -T "COMPOSER=%composer%" %source% -o %dest%
TOC of the extracted CD
Track | Start | Length | Start sector | End sector --------------------------------------------------------- 1 | 0:00.30 | 3:15.41 | 30 | 14695 2 | 3:15.71 | 3:08.48 | 14696 | 28843 3 | 6:24.44 | 3:14.38 | 28844 | 43431 4 | 9:39.07 | 2:02.44 | 43432 | 52625 5 | 11:41.51 | 5:48.12 | 52626 | 78737 6 | 17:29.63 | 5:30.13 | 78738 | 103500 7 | 23:00.01 | 5:09.53 | 103501 | 126728 8 | 28:09.54 | 6:36.21 | 126729 | 156449 9 | 34:46.00 | 8:16.36 | 156450 | 193685 10 | 43:02.36 | 4:06.72 | 193686 | 212207 11 | 47:09.33 | 1:38.29 | 212208 | 219586 12 | 48:47.62 | 1:44.30 | 219587 | 227416 13 | 50:32.17 | 4:19.54 | 227417 | 246895 14 | 54:51.71 | 4:35.03 | 246896 | 267523 15 | 59:26.74 | 4:54.12 | 267524 | 289585 16 | 64:21.11 | 3:59.57 | 289586 | 307567 17 | 68:20.68 | 2:11.48 | 307568 | 317440
Range status and errors
Selected range
Filename F:\Ripped general\[9655] Tellefsen - Piano works (Vol.1) - Jaworska\Tellefsen - Piano works (Vol.1) - Jaworska.wav
Peak level 100.0 % Extraction speed 7.3 X Range quality 100.0 % Test CRC 11D9B536 Copy CRC 11D9B536 Copy OK
No errors occurred
AccurateRip summary
Track 1 cannot be verified as accurate (confidence 1) [0FF05167], AccurateRip returned [74123047] (AR v2)Track 2 cannot be verified as accurate (confidence 1) [8A60F26C], AccurateRip returned [68074574] (AR v2)Track 3 cannot be verified as accurate (confidence 1) [71354DE5], AccurateRip returned [C694995B] (AR v2)Track 4 cannot be verified as accurate (confidence 1) [62E1AD94], AccurateRip returned [B8E736FC] (AR v2)Track 5 cannot be verified as accurate (confidence 1) [F654FB03], AccurateRip returned [E974AF4B] (AR v2)Track 6 cannot be verified as accurate (confidence 1) [A38687DF], AccurateRip returned [374EC856] (AR v2)Track 7 cannot be verified as accurate (confidence 1) [78EC3EF9], AccurateRip returned [85344A3B] (AR v2)Track 8 cannot be verified as accurate (confidence 1) [FDE98953], AccurateRip returned [59CBF5C6] (AR v2)Track 9 cannot be verified as accurate (confidence 1) [3525CF25], AccurateRip returned [380D0834] (AR v2)Track 10 cannot be verified as accurate (confidence 1) [BC61BE2C], AccurateRip returned [B7C7692A] (AR v2)Track 11 cannot be verified as accurate (confidence 1) [6D493B84], AccurateRip returned [1BBF1640] (AR v2)Track 12 cannot be verified as accurate (confidence 1) [044AB4A2], AccurateRip returned [85F71CD4] (AR v2)Track 13 cannot be verified as accurate (confidence 1) [41AB2308], AccurateRip returned [FC0023DE] (AR v2)Track 14 cannot be verified as accurate (confidence 1) [CA600CDD], AccurateRip returned [CDE7EC01] (AR v2)Track 15 cannot be verified as accurate (confidence 1) [F1BCA798], AccurateRip returned [08A0D60D] (AR v2)Track 16 cannot be verified as accurate (confidence 1) [A0712235], AccurateRip returned [79527ABC] (AR v2)Track 17 cannot be verified as accurate (confidence 1) [1CBA2C91], AccurateRip returned [AA58FC50] (AR v2)
No tracks could be verified as accurateYou may have a different pressing from the one(s) in the database
End of status report

CD 2.

Exact Audio Copy V1.0 beta 3 from 29. August 2011
EAC extraction logfile from 27. August 2012, 12:09
Malgorzata Jaworska / Tellefsen - Piano works (Vol.2) - Jaworska
Used drive : HL-DT-STDVDRAM GSA-H10A Adapter: 0 ID: 0
Read mode : SecureUtilize accurate stream : YesDefeat audio cache : YesMake use of C2 pointers : No
Read offset correction : 667Overread into Lead-In and Lead-Out : NoFill up missing offset samples with silence : YesDelete leading and trailing silent blocks : NoNull samples used in CRC calculations : YesUsed interface : Native Win32 interface for Win NT & 2000
Used output format : User Defined EncoderSelected bitrate : 1024 kBit/sQuality : HighAdd ID3 tag : NoCommand line compressor : C:\Program Files\Exact Audio Copy\Flac\flac.exeAdditional command line options : -8 -V -T "TITLE=%title%" -T "ARTIST=%artist%" -T "ALBUMARTIST=%albumartist%" -T "ALBUM=%albumtitle%" -T "DATE=%year%" -T "TRACKNUMBER=%tracknr%" -T "TRACKTOTAL=%numtracks%" -T "GENRE=%genre%" -T "COMMENT=%comment%" -T "PERFORMER=%albuminterpret%" -T "COMPOSER=%composer%" %source% -o %dest%
TOC of the extracted CD
Track | Start | Length | Start sector | End sector --------------------------------------------------------- 1 | 0:00.30 | 4:18.45 | 30 | 19424 2 | 4:19.00 | 1:48.17 | 19425 | 27541 3 | 6:07.17 | 3:08.25 | 27542 | 41666 4 | 9:15.42 | 7:56.71 | 41667 | 77437 5 | 17:12.38 | 3:53.05 | 77438 | 94917 6 | 21:05.43 | 8:11.45 | 94918 | 131787 7 | 29:17.13 | 3:03.48 | 131788 | 145560 8 | 32:20.61 | 9:12.62 | 145561 | 187022 9 | 41:33.48 | 3:48.22 | 187023 | 204144 10 | 45:21.70 | 2:00.04 | 204145 | 213148 11 | 47:21.74 | 4:28.37 | 213149 | 233285 12 | 51:50.36 | 2:25.23 | 233286 | 244183 13 | 54:15.59 | 3:23.38 | 244184 | 259446 14 | 57:39.22 | 2:29.66 | 259447 | 270687 15 | 60:09.13 | 8:13.38 | 270688 | 307700
Range status and errors
Selected range
Filename F:\Ripped general\[9654] Tellefsen - Piano works (Vol.2) - Jaworska\Tellefsen - Piano works (Vol.2) - Jaworska.wav
Peak level 100.0 % Extraction speed 7.6 X Range quality 100.0 % Test CRC B60C180D Copy CRC B60C180D Copy OK
No errors occurred
AccurateRip summary
Track 1 accurately ripped (confidence 1) [F4881036] (AR v1)Track 2 accurately ripped (confidence 1) [B433C37F] (AR v1)Track 3 accurately ripped (confidence 1) [6822A5DA] (AR v1)Track 4 accurately ripped (confidence 1) [2DFBE19B] (AR v1)Track 5 accurately ripped (confidence 1) [399B73E9] (AR v1)Track 6 accurately ripped (confidence 1) [B83C6275] (AR v1)Track 7 accurately ripped (confidence 1) [7CAC9E35] (AR v1)Track 8 accurately ripped (confidence 1) [C0E65DBE] (AR v1)Track 9 accurately ripped (confidence 1) [1292FE31] (AR v1)Track 10 accurately ripped (confidence 1) [FDD3CE60] (AR v1)Track 11 accurately ripped (confidence 1) [593E97CC] (AR v1)Track 12 accurately ripped (confidence 1) [BB3C8556] (AR v1)Track 13 accurately ripped (confidence 1) [E06ADAFB] (AR v1)Track 14 accurately ripped (confidence 1) [2DEB5BDE] (AR v1)Track 15 accurately ripped (confidence 1) [9F51746E] (AR v1)
All tracks accurately ripped
End of status report

CD 3.

Exact Audio Copy V1.0 beta 3 from 29. August 2011
EAC extraction logfile from 27. August 2012, 12:38
Malgorzata Jaworska / Tellefsen - Piano works (Vol.3) - Jaworska
Used drive : HL-DT-STDVDRAM GSA-H10A Adapter: 0 ID: 0
Read mode : SecureUtilize accurate stream : YesDefeat audio cache : YesMake use of C2 pointers : No
Read offset correction : 667Overread into Lead-In and Lead-Out : NoFill up missing offset samples with silence : YesDelete leading and trailing silent blocks : NoNull samples used in CRC calculations : YesUsed interface : Native Win32 interface for Win NT & 2000
Used output format : User Defined EncoderSelected bitrate : 1024 kBit/sQuality : HighAdd ID3 tag : NoCommand line compressor : C:\Program Files\Exact Audio Copy\Flac\flac.exeAdditional command line options : -8 -V -T "TITLE=%title%" -T "ARTIST=%artist%" -T "ALBUMARTIST=%albumartist%" -T "ALBUM=%albumtitle%" -T "DATE=%year%" -T "TRACKNUMBER=%tracknr%" -T "TRACKTOTAL=%numtracks%" -T "GENRE=%genre%" -T "COMMENT=%comment%" -T "PERFORMER=%albuminterpret%" -T "COMPOSER=%composer%" %source% -o %dest%
TOC of the extracted CD
Track | Start | Length | Start sector | End sector --------------------------------------------------------- 1 | 0:00.00 | 3:39.35 | 0 | 16459 2 | 3:39.35 | 4:08.04 | 16460 | 35063 3 | 7:47.39 | 5:52.09 | 35064 | 61472 4 | 13:39.48 | 4:07.38 | 61473 | 80035 5 | 17:47.11 | 4:40.50 | 80036 | 101085 6 | 22:27.61 | 9:37.39 | 101086 | 144399 7 | 32:05.25 | 2:03.06 | 144400 | 153630 8 | 34:08.31 | 2:31.39 | 153631 | 164994 9 | 36:39.70 | 1:49.30 | 164995 | 173199 10 | 38:29.25 | 3:33.39 | 173200 | 189213 11 | 42:02.64 | 3:55.53 | 189214 | 206891 12 | 45:58.42 | 3:01.35 | 206892 | 220501 13 | 49:00.02 | 7:41.40 | 220502 | 255116 14 | 56:41.42 | 4:12.26 | 255117 | 274042 15 | 60:53.68 | 6:25.28 | 274043 | 302945
Range status and errors
Selected range
Filename F:\Ripped general\[9653] Tellefsen - Piano works (Vol.3) - Jaworska\Tellefsen - Piano works (Vol.3) - Jaworska.wav
Peak level 97.7 % Extraction speed 7.6 X Range quality 100.0 % Test CRC 5C8C5654 Copy CRC 5C8C5654 Copy OK
No errors occurred
AccurateRip summary
Track 1 accurately ripped (confidence 1) [8AB96CE7] (AR v1)Track 2 accurately ripped (confidence 1) [525A1349] (AR v1)Track 3 accurately ripped (confidence 1) [D8D7B9EC] (AR v1)Track 4 accurately ripped (confidence 1) [A18E5D94] (AR v1)Track 5 accurately ripped (confidence 1) [A2B6F1A6] (AR v1)Track 6 accurately ripped (confidence 1) [015F4C37] (AR v1)Track 7 accurately ripped (confidence 1) [465247C8] (AR v1)Track 8 accurately ripped (confidence 1) [2A84F936] (AR v1)Track 9 accurately ripped (confidence 1) [F79C6EB0] (AR v1)Track 10 accurately ripped (confidence 1) [BFEC5E58] (AR v1)Track 11 accurately ripped (confidence 1) [16C77E90] (AR v1)Track 12 accurately ripped (confidence 1) [C6A7A145] (AR v1)Track 13 accurately ripped (confidence 1) [516FE2B5] (AR v1)Track 14 accurately ripped (confidence 1) [718ADCF1] (AR v1)Track 15 accurately ripped (confidence 1) [6F976BCF] (AR v1)
All tracks accurately ripped
End of status report

CD 4.

Exact Audio Copy V1.0 beta 3 from 29. August 2011
EAC extraction logfile from 27. August 2012, 13:13
Malgorzata Jaworska / Tellefsen - Piano works (Vol.4) - Jaworska
Used drive : HL-DT-STDVDRAM GSA-H10A Adapter: 0 ID: 0
Read mode : SecureUtilize accurate stream : YesDefeat audio cache : YesMake use of C2 pointers : No
Read offset correction : 667Overread into Lead-In and Lead-Out : NoFill up missing offset samples with silence : YesDelete leading and trailing silent blocks : NoNull samples used in CRC calculations : YesUsed interface : Native Win32 interface for Win NT & 2000
Used output format : User Defined EncoderSelected bitrate : 1024 kBit/sQuality : HighAdd ID3 tag : NoCommand line compressor : C:\Program Files\Exact Audio Copy\Flac\flac.exeAdditional command line options : -8 -V -T "TITLE=%title%" -T "ARTIST=%artist%" -T "ALBUMARTIST=%albumartist%" -T "ALBUM=%albumtitle%" -T "DATE=%year%" -T "TRACKNUMBER=%tracknr%" -T "TRACKTOTAL=%numtracks%" -T "GENRE=%genre%" -T "COMMENT=%comment%" -T "PERFORMER=%albuminterpret%" -T "COMPOSER=%composer%" %source% -o %dest%
TOC of the extracted CD
Track | Start | Length | Start sector | End sector --------------------------------------------------------- 1 | 0:00.00 | 10:58.38 | 0 | 49387 2 | 10:58.38 | 9:34.34 | 49388 | 92471 3 | 20:32.72 | 2:56.51 | 92472 | 105722 4 | 23:29.48 | 6:08.41 | 105723 | 133363 5 | 29:38.14 | 3:05.38 | 133364 | 147276 6 | 32:43.52 | 12:32.58 | 147277 | 203734 7 | 45:16.35 | 4:39.19 | 203735 | 224678 8 | 49:55.54 | 8:12.45 | 224679 | 261623
Range status and errors
Selected range
Filename F:\Ripped general\[9652] Tellefsen - Piano works (Vol.4) - Jaworska\Tellefsen - Piano works (Vol.4) - Jaworska.wav
Peak level 100.0 % Extraction speed 4.6 X Range quality 99.9 % Test CRC 217ACDC2 Copy CRC 217ACDC2 Copy OK
No errors occurred
AccurateRip summary
Track 1 accurately ripped (confidence 1) [6C3A39E4] (AR v1)Track 2 accurately ripped (confidence 1) [8E29945C] (AR v1)Track 3 accurately ripped (confidence 1) [2AAE0FE3] (AR v1)Track 4 accurately ripped (confidence 1) [CC9DB2B7] (AR v1)Track 5 accurately ripped (confidence 1) [345D87FA] (AR v1)Track 6 accurately ripped (confidence 1) [CF33D07B] (AR v1)Track 7 accurately ripped (confidence 1) [4D1BBACE] (AR v1)Track 8 accurately ripped (confidence 1) [FB011B78] (AR v1)
All tracks accurately ripped
End of status report

Содержание индексных карт (.CUE)CD 1.

REM GENRE ClassicalREM DISCID F7108811REM COMMENT "ExactAudioCopy v1.0b3"PERFORMER "Malgorzata Jaworska"TITLE "Tellefsen – Piano works – Malgorzata Jaworska – Vol. 1"FILE "Tellefsen – Piano works – Malgorzata Jaworska – Vol. 1.flac" WAVE TRACK 01 AUDIO TITLE "Quatre Mazurkas, Op. 1 - No. 1 in A major" PERFORMER "Malgorzata Jaworska" INDEX 00 00:00:00 INDEX 01 00:00:30 TRACK 02 AUDIO TITLE "Quatre Mazurkas, Op. 1 - No. 2 in A minor" PERFORMER "Malgorzata Jaworska" INDEX 01 03:15:71 TRACK 03 AUDIO TITLE "Quatre Mazurkas, Op. 1 - No. 3 in E minor" PERFORMER "Malgorzata Jaworska" INDEX 01 06:24:44 TRACK 04 AUDIO TITLE "Quatre Mazurkas, Op. 1 - No. 4 in A major" PERFORMER "Malgorzata Jaworska" INDEX 01 09:39:07 TRACK 05 AUDIO TITLE "Grande Mazurka in B flat major, Op. 24" PERFORMER "Malgorzata Jaworska" INDEX 01 11:41:51 TRACK 06 AUDIO TITLE "Walhallafesten in G minor, Op. 40" PERFORMER "Malgorzata Jaworska" INDEX 01 17:29:63 TRACK 07 AUDIO TITLE "Nocturne No. 4 in G flat major, Op. 39" PERFORMER "Malgorzata Jaworska" INDEX 01 23:00:01 TRACK 08 AUDIO TITLE "Sonate in C minor, Op. 13 - I. Allegro moderato" PERFORMER "Malgorzata Jaworska" INDEX 01 28:09:54 TRACK 09 AUDIO TITLE "Sonate in C minor, Op. 13 - II. Adagio" PERFORMER "Malgorzata Jaworska" INDEX 01 34:46:00 TRACK 10 AUDIO TITLE "Sonate in C minor, Op. 13 - III. Rondo. Vivace" PERFORMER "Malgorzata Jaworska" INDEX 01 43:02:36 TRACK 11 AUDIO TITLE "Trois Valses brillantes, Op. 5 - No. 1 in A flat major" PERFORMER "Malgorzata Jaworska" INDEX 01 47:09:33 TRACK 12 AUDIO TITLE "Trois Valses brillantes, Op. 5 - No. 2 in G major" PERFORMER "Malgorzata Jaworska" INDEX 01 48:47:62 TRACK 13 AUDIO TITLE "Trois Valses brillantes, Op. 5 - No. 3 in E major" PERFORMER "Malgorzata Jaworska" INDEX 01 50:32:17 TRACK 14 AUDIO TITLE "Grandes Valses, Op. 30 - No. 1 in F major" PERFORMER "Malgorzata Jaworska" INDEX 01 54:51:71 TRACK 15 AUDIO TITLE "Grandes Valses, Op. 30 - No. 2 in F minor" PERFORMER "Malgorzata Jaworska" INDEX 01 59:26:74 TRACK 16 AUDIO TITLE "Au travers d'un songe in A flat major, Op. 34" PERFORMER "Malgorzata Jaworska" INDEX 01 64:21:11 TRACK 17 AUDIO TITLE "La petite mendiante in E minor, Op. 23" PERFORMER "Malgorzata Jaworska" INDEX 01 68:20:68

CD 2.

REM GENRE ClassicalREM DISCID D010060FREM COMMENT "ExactAudioCopy v1.0b3"PERFORMER "Malgorzata Jaworska"TITLE "Tellefsen – Piano works – Malgorzata Jaworska – Vol. 2"FILE "Tellefsen – Piano works – Malgorzata Jaworska – Vol. 2.flac" WAVE TRACK 01 AUDIO TITLE "Grande Etude in C sharp minor, Op. 25" PERFORMER "Malgorzata Jaworska" INDEX 00 00:00:00 INDEX 01 00:00:30 TRACK 02 AUDIO TITLE "Feuillets d'Album, Op. 16 - No. 1. Allegro moderato in B major" PERFORMER "Malgorzata Jaworska" INDEX 01 04:19:00 TRACK 03 AUDIO TITLE "Feuillets d'Album, Op. 16 - No. 2. Lento in A flat major" PERFORMER "Malgorzata Jaworska" INDEX 01 06:07:17 TRACK 04 AUDIO TITLE "Feuillets d'Album, Op. 16 - No. 3. Marche funebre in C minor" PERFORMER "Malgorzata Jaworska" INDEX 01 09:15:42 TRACK 05 AUDIO TITLE "Impromptu in G minor, Op. 38" PERFORMER "Malgorzata Jaworska" INDEX 01 17:12:38 TRACK 06 AUDIO TITLE "Elegie in F minor, Op. 7" PERFORMER "Malgorzata Jaworska" INDEX 01 21:05:43 TRACK 07 AUDIO TITLE "Allegretto in A major, Op. 20" PERFORMER "Malgorzata Jaworska" INDEX 01 29:17:13 TRACK 08 AUDIO TITLE "Grand Polonaise in C sharp minor, Op. 18" PERFORMER "Malgorzata Jaworska" INDEX 01 32:20:61 TRACK 09 AUDIO TITLE "Mazurkas, Op. 14 - No. 1 in D minor" PERFORMER "Malgorzata Jaworska" INDEX 01 41:33:48 TRACK 10 AUDIO TITLE "Mazurkas, Op. 14 - No. 2 in G major 'La Ronde'" PERFORMER "Malgorzata Jaworska" INDEX 01 45:21:70 TRACK 11 AUDIO TITLE "Mazurkas, Op. 14 - No. 3 in F minor" PERFORMER "Malgorzata Jaworska" INDEX 01 47:21:74 TRACK 12 AUDIO TITLE "Mazurkas, Op. 14 - No. 4 in F major" PERFORMER "Malgorzata Jaworska" INDEX 01 51:50:36 TRACK 13 AUDIO TITLE "Mazurkas, Op. 14 - No. 5 in D major" PERFORMER "Malgorzata Jaworska" INDEX 01 54:15:59 TRACK 14 AUDIO TITLE "Mazurkas, Op. 14 - No. 6 in C minor" PERFORMER "Malgorzata Jaworska" INDEX 01 57:39:22 TRACK 15 AUDIO TITLE "Marche Triomphale in E flat major, Op. 29" PERFORMER "Malgorzata Jaworska" INDEX 01 60:09:13

CD 3.

REM GENRE ClassicalREM DISCID B60FC70FREM COMMENT "ExactAudioCopy v1.0b3"PERFORMER "Malgorzata Jaworska"TITLE "Tellefsen – Piano works – Malgorzata Jaworska – Vol. 3"FILE "Tellefsen – Piano works – Malgorzata Jaworska – Vol. 3.flac" WAVE TRACK 01 AUDIO TITLE "Valse in D flat major, Op. 27" PERFORMER "Malgorzata Jaworska" INDEX 01 00:00:00 TRACK 02 AUDIO TITLE "Ballade in C minor, Op. 28" PERFORMER "Malgorzata Jaworska" INDEX 01 03:39:35 TRACK 03 AUDIO TITLE "Mazurka in A major, Op. 33" PERFORMER "Malgorzata Jaworska" INDEX 01 07:47:39 TRACK 04 AUDIO TITLE "Tarantelle in E flat major, Op. 6" PERFORMER "Malgorzata Jaworska" INDEX 01 13:39:48 TRACK 05 AUDIO TITLE "Nocturne No. 3 in G minor, Op. 17" PERFORMER "Malgorzata Jaworska" INDEX 01 17:47:11 TRACK 06 AUDIO TITLE "Adagio et Rondo in B minor, Op. 10" PERFORMER "Malgorzata Jaworska" INDEX 01 22:27:61 TRACK 07 AUDIO TITLE "Quatre Mazurkas, Op. 3 - No. 1 in G minor" PERFORMER "Malgorzata Jaworska" INDEX 01 32:05:25 TRACK 08 AUDIO TITLE "Quatre Mazurkas, Op. 3 - No. 2 in G major" PERFORMER "Malgorzata Jaworska" INDEX 01 34:08:31 TRACK 09 AUDIO TITLE "Quatre Mazurkas, Op. 3 - No. 3 in B major" PERFORMER "Malgorzata Jaworska" INDEX 01 36:39:70 TRACK 10 AUDIO TITLE "Quatre Mazurkas, Op. 3 - No. 4 in F sharp minor" PERFORMER "Malgorzata Jaworska" INDEX 01 38:29:25 TRACK 11 AUDIO TITLE "Bruraslaatten in D major, Op. 26" PERFORMER "Malgorzata Jaworska" INDEX 01 42:02:64 TRACK 12 AUDIO TITLE "Huldredansen in G minor, Op. 9" PERFORMER "Malgorzata Jaworska" INDEX 01 45:58:42 TRACK 13 AUDIO TITLE "Melodies ecossaises in A major, Op. 42" PERFORMER "Malgorzata Jaworska" INDEX 01 49:00:02 TRACK 14 AUDIO TITLE "Nocturne No. 1 in F major, Op. 2" PERFORMER "Malgorzata Jaworska" INDEX 01 56:41:42 TRACK 15 AUDIO TITLE "Pavane de la Reine Elizabeth in C sharp minor, Op. 44" PERFORMER "Malgorzata Jaworska" INDEX 01 60:53:68

CD 4.

REM GENRE ClassicalREM DISCID 710DA008REM COMMENT "ExactAudioCopy v1.0b3"PERFORMER "Malgorzata Jaworska"TITLE "Tellefsen – Piano works – Malgorzata Jaworska – Vol. 4"FILE "Tellefsen – Piano works – Malgorzata Jaworska – Vol. 4.flac" WAVE TRACK 01 AUDIO TITLE "Theme original et Fantaisie in B flat minor, Op. 12" PERFORMER "Malgorzata Jaworska" INDEX 01 00:00:00 TRACK 02 AUDIO TITLE "Toccata in F major, Op. 22" PERFORMER "Malgorzata Jaworska" INDEX 00 10:56:38 INDEX 01 10:58:38 TRACK 03 AUDIO TITLE "Exercice en sixtes in E major, Op. 43" PERFORMER "Malgorzata Jaworska" INDEX 00 20:30:72 INDEX 01 20:32:72 TRACK 04 AUDIO TITLE "Capriccio appassionato in B minor, Op. 36" PERFORMER "Malgorzata Jaworska" INDEX 00 23:27:48 INDEX 01 23:29:48 TRACK 05 AUDIO TITLE "Nocturne No. 2 in E major, Op. 11" PERFORMER "Malgorzata Jaworska" INDEX 00 29:36:14 INDEX 01 29:38:14 TRACK 06 AUDIO TITLE "Sonate for two pianos in B minor, Op. 41 - I. Allegro maestoso" PERFORMER "Joanna Lawrynowicz & Krystyna Makowska" INDEX 00 32:41:52 INDEX 01 32:43:52 TRACK 07 AUDIO TITLE "Sonate for two pianos in B minor, Op. 41 - II. Andante" PERFORMER "Joanna Lawrynowicz & Krystyna Makowska" INDEX 00 45:14:35 INDEX 01 45:16:35 TRACK 08 AUDIO TITLE "Sonate for two pianos in B minor, Op. 41 - III. Finale. Moderato" PERFORMER "Joanna Lawrynowicz & Krystyna Makowska" INDEX 00 49:53:54 INDEX 01 49:55:54

Варианты индексных карт (.CUE)CD 1 с выставленными зазорами.

REM GENRE ClassicalREM DISCID F7108811REM COMMENT "ExactAudioCopy v1.0b3"PERFORMER "Malgorzata Jaworska"TITLE "Tellefsen – Piano works – Malgorzata Jaworska – Vol. 1"FILE "Tellefsen – Piano works – Malgorzata Jaworska – Vol. 1.flac" WAVE TRACK 01 AUDIO TITLE "Quatre Mazurkas, Op. 1 - No. 1 in A major" PERFORMER "Malgorzata Jaworska" INDEX 00 00:00:00 INDEX 01 00:00:30 TRACK 02 AUDIO TITLE "Quatre Mazurkas, Op. 1 - No. 2 in A minor" PERFORMER "Malgorzata Jaworska" INDEX 00 03:14:18 INDEX 01 03:15:71 TRACK 03 AUDIO TITLE "Quatre Mazurkas, Op. 1 - No. 3 in E minor" PERFORMER "Malgorzata Jaworska" INDEX 01 06:24:44 TRACK 04 AUDIO TITLE "Quatre Mazurkas, Op. 1 - No. 4 in A major" PERFORMER "Malgorzata Jaworska" INDEX 00 09:36:17 INDEX 01 09:39:07 TRACK 05 AUDIO TITLE "Grande Mazurka in B flat major, Op. 24" PERFORMER "Malgorzata Jaworska" INDEX 01 11:41:51 TRACK 06 AUDIO TITLE "Walhallafesten in G minor, Op. 40" PERFORMER "Malgorzata Jaworska" INDEX 00 17:28:61 INDEX 01 17:29:63 TRACK 07 AUDIO TITLE "Nocturne No. 4 in G flat major, Op. 39" PERFORMER "Malgorzata Jaworska" INDEX 00 22:58:34 INDEX 01 23:00:01 TRACK 08 AUDIO TITLE "Sonate in C minor, Op. 13 - I. Allegro moderato" PERFORMER "Malgorzata Jaworska" INDEX 01 28:09:54 TRACK 09 AUDIO TITLE "Sonate in C minor, Op. 13 - II. Adagio" PERFORMER "Malgorzata Jaworska" INDEX 00 34:41:36 INDEX 01 34:46:00 TRACK 10 AUDIO TITLE "Sonate in C minor, Op. 13 - III. Rondo. Vivace" PERFORMER "Malgorzata Jaworska" INDEX 00 42:58:73 INDEX 01 43:02:36 TRACK 11 AUDIO TITLE "Trois Valses brillantes, Op. 5 - No. 1 in A flat major" PERFORMER "Malgorzata Jaworska" INDEX 00 47:05:25 INDEX 01 47:09:33 TRACK 12 AUDIO TITLE "Trois Valses brillantes, Op. 5 - No. 2 in G major" PERFORMER "Malgorzata Jaworska" INDEX 00 48:46:17 INDEX 01 48:47:62 TRACK 13 AUDIO TITLE "Trois Valses brillantes, Op. 5 - No. 3 in E major" PERFORMER "Malgorzata Jaworska" INDEX 00 50:31:09 INDEX 01 50:32:17 TRACK 14 AUDIO TITLE "Grandes Valses, Op. 30 - No. 1 in F major" PERFORMER "Malgorzata Jaworska" INDEX 01 54:51:71 TRACK 15 AUDIO TITLE "Grandes Valses, Op. 30 - No. 2 in F minor" PERFORMER "Malgorzata Jaworska" INDEX 00 59:26:10 INDEX 01 59:26:74 TRACK 16 AUDIO TITLE "Au travers d'un songe in A flat major, Op. 34" PERFORMER "Malgorzata Jaworska" INDEX 00 64:19:31 INDEX 01 64:21:11 TRACK 17 AUDIO TITLE "La petite mendiante in E minor, Op. 23" PERFORMER "Malgorzata Jaworska" INDEX 01 68:20:68

CD 2 с выставленными зазорами.

REM GENRE ClassicalREM DISCID D010060FREM COMMENT "ExactAudioCopy v1.0b3"PERFORMER "Malgorzata Jaworska"TITLE "Tellefsen – Piano works – Malgorzata Jaworska – Vol. 2"FILE "Tellefsen – Piano works – Malgorzata Jaworska – Vol. 2.flac" WAVE TRACK 01 AUDIO TITLE "Grande Etude in C sharp minor, Op. 25" PERFORMER "Malgorzata Jaworska" INDEX 00 00:00:00 INDEX 01 00:00:30 TRACK 02 AUDIO TITLE "Feuillets d'Album, Op. 16 - No. 1. Allegro moderato in B major" PERFORMER "Malgorzata Jaworska" INDEX 00 04:17:64 INDEX 01 04:19:00 TRACK 03 AUDIO TITLE "Feuillets d'Album, Op. 16 - No. 2. Lento in A flat major" PERFORMER "Malgorzata Jaworska" INDEX 00 06:06:22 INDEX 01 06:07:17 TRACK 04 AUDIO TITLE "Feuillets d'Album, Op. 16 - No. 3. Marche funebre in C minor" PERFORMER "Malgorzata Jaworska" INDEX 00 09:11:69 INDEX 01 09:15:42 TRACK 05 AUDIO TITLE "Impromptu in G minor, Op. 38" PERFORMER "Malgorzata Jaworska" INDEX 00 17:11:20 INDEX 01 17:12:38 TRACK 06 AUDIO TITLE "Elegie in F minor, Op. 7" PERFORMER "Malgorzata Jaworska" INDEX 00 21:03:50 INDEX 01 21:05:43 TRACK 07 AUDIO TITLE "Allegretto in A major, Op. 20" PERFORMER "Malgorzata Jaworska" INDEX 00 29:16:15 INDEX 01 29:17:13 TRACK 08 AUDIO TITLE "Grand Polonaise in C sharp minor, Op. 18" PERFORMER "Malgorzata Jaworska" INDEX 00 32:20:11 INDEX 01 32:20:61 TRACK 09 AUDIO TITLE "Mazurkas, Op. 14 - No. 1 in D minor" PERFORMER "Malgorzata Jaworska" INDEX 00 41:32:17 INDEX 01 41:33:48 TRACK 10 AUDIO TITLE "Mazurkas, Op. 14 - No. 2 in G major 'La Ronde'" PERFORMER "Malgorzata Jaworska" INDEX 01 45:21:70 TRACK 11 AUDIO TITLE "Mazurkas, Op. 14 - No. 3 in F minor" PERFORMER "Malgorzata Jaworska" INDEX 00 47:20:00 INDEX 01 47:21:74 TRACK 12 AUDIO TITLE "Mazurkas, Op. 14 - No. 4 in F major" PERFORMER "Malgorzata Jaworska" INDEX 00 51:49:14 INDEX 01 51:50:36 TRACK 13 AUDIO TITLE "Mazurkas, Op. 14 - No. 5 in D major" PERFORMER "Malgorzata Jaworska" INDEX 01 54:15:59 TRACK 14 AUDIO TITLE "Mazurkas, Op. 14 - No. 6 in C minor" PERFORMER "Malgorzata Jaworska" INDEX 00 57:37:00 INDEX 01 57:39:22 TRACK 15 AUDIO TITLE "Marche Triomphale in E flat major, Op. 29" PERFORMER "Malgorzata Jaworska" INDEX 01 60:09:13 INDEX 02 68:19:50

CD 3 с выставленными зазорами.

REM GENRE ClassicalREM DISCID B60FC70FREM COMMENT "ExactAudioCopy v1.0b3"PERFORMER "Malgorzata Jaworska"TITLE "Tellefsen – Piano works – Malgorzata Jaworska – Vol. 3"FILE "Tellefsen – Piano works – Malgorzata Jaworska – Vol. 3.flac" WAVE TRACK 01 AUDIO TITLE "Valse in D flat major, Op. 27" PERFORMER "Malgorzata Jaworska" INDEX 00 00:00:00 INDEX 01 00:00:46 TRACK 02 AUDIO TITLE "Ballade in C minor, Op. 28" PERFORMER "Malgorzata Jaworska" INDEX 00 03:37:09 INDEX 01 03:39:35 TRACK 03 AUDIO TITLE "Mazurka in A major, Op. 33" PERFORMER "Malgorzata Jaworska" INDEX 00 07:44:61 INDEX 01 07:47:39 TRACK 04 AUDIO TITLE "Tarantelle in E flat major, Op. 6" PERFORMER "Malgorzata Jaworska" INDEX 00 13:39:08 INDEX 01 13:39:48 TRACK 05 AUDIO TITLE "Nocturne No. 3 in G minor, Op. 17" PERFORMER "Malgorzata Jaworska" INDEX 00 17:43:49 INDEX 01 17:47:11 TRACK 06 AUDIO TITLE "Adagio et Rondo in B minor, Op. 10" PERFORMER "Malgorzata Jaworska" INDEX 00 22:25:05 INDEX 01 22:27:61 TRACK 07 AUDIO TITLE "Quatre Mazurkas, Op. 3 - No. 1 in G minor" PERFORMER "Malgorzata Jaworska" INDEX 00 32:01:66 INDEX 01 32:05:25 TRACK 08 AUDIO TITLE "Quatre Mazurkas, Op. 3 - No. 2 in G major" PERFORMER "Malgorzata Jaworska" INDEX 00 34:05:42 INDEX 01 34:08:31 TRACK 09 AUDIO TITLE "Quatre Mazurkas, Op. 3 - No. 3 in B major" PERFORMER "Malgorzata Jaworska" INDEX 00 36:37:44 INDEX 01 36:39:70 TRACK 10 AUDIO TITLE "Quatre Mazurkas, Op. 3 - No. 4 in F sharp minor" PERFORMER "Malgorzata Jaworska" INDEX 00 38:26:14 INDEX 01 38:29:25 TRACK 11 AUDIO TITLE "Bruraslaatten in D major, Op. 26" PERFORMER "Malgorzata Jaworska" INDEX 00 41:59:24 INDEX 01 42:02:64 TRACK 12 AUDIO TITLE "Huldredansen in G minor, Op. 9" PERFORMER "Malgorzata Jaworska" INDEX 00 45:54:43 INDEX 01 45:58:42 TRACK 13 AUDIO TITLE "Melodies ecossaises in A major, Op. 42" PERFORMER "Malgorzata Jaworska" INDEX 00 48:56:61 INDEX 01 49:00:02 TRACK 14 AUDIO TITLE "Nocturne No. 1 in F major, Op. 2" PERFORMER "Malgorzata Jaworska" INDEX 00 56:37:65 INDEX 01 56:41:42 TRACK 15 AUDIO TITLE "Pavane de la Reine Elizabeth in C sharp minor, Op. 44" PERFORMER "Malgorzata Jaworska" INDEX 00 60:50:56 INDEX 01 60:53:68 INDEX 02 67:14:28

CD 4 с исправленными зазорами.

REM GENRE ClassicalREM DISCID 710DA008REM COMMENT "ExactAudioCopy v1.0b3"PERFORMER "Malgorzata Jaworska"TITLE "Tellefsen – Piano works – Malgorzata Jaworska – Vol. 4"FILE "Tellefsen – Piano works – Malgorzata Jaworska – Vol. 4.flac" WAVE TRACK 01 AUDIO TITLE "Theme original et Fantaisie in B flat minor, Op. 12" PERFORMER "Malgorzata Jaworska" INDEX 01 00:00:00 TRACK 02 AUDIO TITLE "Toccata in F major, Op. 22" PERFORMER "Malgorzata Jaworska" INDEX 01 10:58:38 TRACK 03 AUDIO TITLE "Exercice en sixtes in E major, Op. 43" PERFORMER "Malgorzata Jaworska" INDEX 01 20:32:72 TRACK 04 AUDIO TITLE "Capriccio appassionato in B minor, Op. 36" PERFORMER "Malgorzata Jaworska" INDEX 01 23:29:48 TRACK 05 AUDIO TITLE "Nocturne No. 2 in E major, Op. 11" PERFORMER "Malgorzata Jaworska" INDEX 01 29:38:14 TRACK 06 AUDIO TITLE "Sonate for two pianos in B minor, Op. 41 - I. Allegro maestoso" PERFORMER "Joanna Lawrynowicz & Krystyna Makowska" INDEX 01 32:43:52 TRACK 07 AUDIO TITLE "Sonate for two pianos in B minor, Op. 41 - II. Andante" PERFORMER "Joanna Lawrynowicz & Krystyna Makowska" INDEX 01 45:16:35 TRACK 08 AUDIO TITLE "Sonate for two pianos in B minor, Op. 41 - III. Finale. Moderato" PERFORMER "Joanna Lawrynowicz & Krystyna Makowska" INDEX 01 49:55:54

CD 4 с исправленными зазорами с разделением Фантазии на отдельные треки.

REM GENRE ClassicalREM DISCID 710DA008REM COMMENT "ExactAudioCopy v1.0b3"PERFORMER "Malgorzata Jaworska"TITLE "Tellefsen – Piano works – Malgorzata Jaworska – Vol. 4"FILE "Tellefsen – Piano works – Malgorzata Jaworska – Vol. 4.flac" WAVE TRACK 01 AUDIO TITLE "Theme original et Fantaisie in B flat minor, Op. 12 - Introduction. Largo -" PERFORMER "Malgorzata Jaworska" INDEX 01 00:00:00 TRACK 02 AUDIO TITLE "Theme original et Fantaisie in B flat minor, Op. 12 - Theme. Andante -" PERFORMER "Malgorzata Jaworska" INDEX 01 01:21:38 TRACK 03 AUDIO TITLE "Theme original et Fantaisie in B flat minor, Op. 12 - Variation I -" PERFORMER "Malgorzata Jaworska" INDEX 01 02:30:36 TRACK 04 AUDIO TITLE "Theme original et Fantaisie in B flat minor, Op. 12 - Variation II -" PERFORMER "Malgorzata Jaworska" INDEX 01 03:42:39 TRACK 05 AUDIO TITLE "Theme original et Fantaisie in B flat minor, Op. 12 - Variation III -" PERFORMER "Malgorzata Jaworska" INDEX 01 05:03:24 TRACK 06 AUDIO TITLE "Theme original et Fantaisie in B flat minor, Op. 12 - Adagio cantabile -" PERFORMER "Joanna Lawrynowicz & Krystyna Makowska" INDEX 01 06:26:61 TRACK 07 AUDIO TITLE "Theme original et Fantaisie in B flat minor, Op. 12 - Tempo I -" PERFORMER "Joanna Lawrynowicz & Krystyna Makowska" INDEX 01 09:07:44 TRACK 08 AUDIO TITLE "Theme original et Fantaisie in B flat minor, Op. 12 - Con brio" PERFORMER "Joanna Lawrynowicz & Krystyna Makowska" INDEX 01 10:12:36 TRACK 09 AUDIO TITLE "Toccata in F major, Op. 22" PERFORMER "Malgorzata Jaworska" INDEX 01 10:58:38 TRACK 10 AUDIO TITLE "Exercice en sixtes in E major, Op. 43" PERFORMER "Malgorzata Jaworska" INDEX 01 20:32:72 TRACK 11 AUDIO TITLE "Capriccio appassionato in B minor, Op. 36" PERFORMER "Malgorzata Jaworska" INDEX 01 23:29:48 TRACK 12 AUDIO TITLE "Nocturne No. 2 in E major, Op. 11" PERFORMER "Malgorzata Jaworska" INDEX 01 29:38:14 TRACK 13 AUDIO TITLE "Sonate for two pianos in B minor, Op. 41 - I. Allegro maestoso" PERFORMER "Joanna Lawrynowicz & Krystyna Makowska" INDEX 01 32:43:52 TRACK 14 AUDIO TITLE "Sonate for two pianos in B minor, Op. 41 - II. Andante" PERFORMER "Joanna Lawrynowicz & Krystyna Makowska" INDEX 01 45:16:35 TRACK 15 AUDIO TITLE "Sonate for two pianos in B minor, Op. 41 - III. Finale. Moderato" PERFORMER "Joanna Lawrynowicz & Krystyna Makowska" INDEX 01 49:55:54



Показать сообщения:    

Текущее время: 11-Дек 16:53

Часовой пояс: UTC + 3


Вы не можете начинать темы
Вы не можете отвечать на сообщения
Вы не можете редактировать свои сообщения
Вы не можете удалять свои сообщения
Вы не можете голосовать в опросах
Вы не можете прикреплять файлы к сообщениям
Вы не можете скачивать файлы