(Classical) Филип Гласс / Philip Glass - Glassworlds [complete solo piano music] Vol.2: Complete Etudes Nos.1-20 (Nicolas Horvath) - 2015, FLAC (image+.cue) lossless


 

[Цитировать]

Philip Glass - Glassworlds Vol.2
Жанр: Classical
Страна-производитель диска: Germany
Год издания диска: 2015
Издатель (лейбл): Grand Piano
Номер по каталогу: GP690
Дата записи: 27.III&3&8.IV.2015
Аудиокодек: FLAC
Тип рипа: image+.cue
Битрейт аудио: lossless
Продолжительность: 1:23'23"
Источник: собственный рип
Наличие сканов в содержимом раздачи: да
Complete Etudes:
Book 1
01. Etude No.1
02. Etude No.2
03. Etude No.3
04. Etude No.4
05. Etude No.5
06. Etude No.6
07. Etude No.7
08. Etude No.8
09. Etude No.9
10. Etude No.10
Book 2
11. Etude No.11
12. Etude No.12
13. Etude No.13
14. Etude No.14
15. Etude No.15
16. Etude No.16
17. Etude No.17
18. Etude No.18
19. Etude No.19
20. Etude No.20
Исполнители:
Nicolas Horvath, piano-

Лог создания рипа

Exact Audio Copy V1.0 beta 4 from 7. December 2014
EAC extraction logfile from 21. October 2015, 20:35
Philip Glass / Glassworlds Vol. 2
Used drive : TSSTcorpDVDWBD TS-LB23A Adapter: 1 ID: 0
Read mode : SecureUtilize accurate stream : YesDefeat audio cache : YesMake use of C2 pointers : No
Read offset correction : 6Overread into Lead-In and Lead-Out : NoFill up missing offset samples with silence : YesDelete leading and trailing silent blocks : NoNull samples used in CRC calculations : YesUsed interface : Native Win32 interface for Win NT & 2000
Used output format : User Defined EncoderSelected bitrate : 128 kBit/sQuality : HighAdd ID3 tag : YesCommand line compressor : C:\Program Files (x86)\Exact Audio Copy\Flac\flac.exeAdditional command line options : -T "COMMENT=Ripped by GFox" -V -8 %source%
TOC of the extracted CD
Track | Start | Length | Start sector | End sector --------------------------------------------------------- 1 | 0:00.00 | 3:33.18 | 0 | 15992 2 | 3:33.18 | 3:03.00 | 15993 | 29717 3 | 6:36.18 | 3:53.45 | 29718 | 47237 4 | 10:29.63 | 3:27.00 | 47238 | 62762 5 | 13:56.63 | 4:19.15 | 62763 | 82202 6 | 18:16.03 | 3:15.00 | 82203 | 96827 7 | 21:31.03 | 3:51.00 | 96828 | 114152 8 | 25:22.03 | 5:43.15 | 114153 | 139892 9 | 31:05.18 | 2:11.00 | 139893 | 149717 10 | 33:16.18 | 5:18.45 | 149718 | 173612 11 | 38:34.63 | 4:02.60 | 173613 | 191822 12 | 42:37.48 | 4:29.30 | 191823 | 212027 13 | 47:07.03 | 3:23.00 | 212028 | 227252 14 | 50:30.03 | 3:34.45 | 227253 | 243347 15 | 54:04.48 | 3:07.30 | 243348 | 257402 16 | 57:12.03 | 4:59.15 | 257403 | 279842 17 | 62:11.18 | 6:14.60 | 279843 | 307952 18 | 68:26.03 | 3:13.45 | 307953 | 322472 19 | 71:39.48 | 5:02.45 | 322473 | 345167 20 | 76:42.18 | 6:40.57 | 345168 | 375224
Range status and errors
Selected range
Filename D:\Downloads\Philip Glass - Glassworlds Vol. 2.wav
Peak level 83.1 % Extraction speed 1.8 X Range quality 100.0 % Test CRC 95CDC30D Copy CRC 95CDC30D Copy OK
No errors occurred
AccurateRip summary
Track 1 not present in databaseTrack 2 not present in databaseTrack 3 not present in databaseTrack 4 not present in databaseTrack 5 not present in databaseTrack 6 not present in databaseTrack 7 not present in databaseTrack 8 not present in databaseTrack 9 not present in databaseTrack 10 not present in databaseTrack 11 not present in databaseTrack 12 not present in databaseTrack 13 not present in databaseTrack 14 not present in databaseTrack 15 not present in databaseTrack 16 not present in databaseTrack 17 not present in databaseTrack 18 not present in databaseTrack 19 not present in databaseTrack 20 not present in database
None of the tracks are present in the AccurateRip database
End of status report
==== Log checksum A4A2B1B948A607C8C9A9F8F10AF85910711E439C7127F56677BB2BCF3F4F7675 ====
-Доп. информация: Ещё совсем недавно прошла премьера второй книги полного собрания фортепианных этюдов Гласса, а лауреат конкурса имени Скрябина французский пианист Николя Хорват и лейбл Grand Piano во втором томе проекта Glassworlds (полного собрания сольной фортепианной музыки Филипа Гласса) уже представляют свежую энергичную трактовку цикла, целиком уместившуюся на один музыкальный компакт-диск.--



Показать сообщения:    

Текущее время: 11-Дек 12:57

Часовой пояс: UTC + 3


Вы не можете начинать темы
Вы не можете отвечать на сообщения
Вы не можете редактировать свои сообщения
Вы не можете удалять свои сообщения
Вы не можете голосовать в опросах
Вы не можете прикреплять файлы к сообщениям
Вы не можете скачивать файлы