(Classical) Юхан Хальворсен / Johan Halvorsen - Orchestral Works, Volume 2 - Marianne Thorsen, Bergen Philharmonic Orchestra, Neeme Järvi (Jarvi) - 2010, FLAC (image+.cue) lossless


 

[Цитировать]

Johan Halvorsen - Orchestral Works, Volume 2 - Marianne Thorsen, Bergen Philharmonic Orchestra, Neeme Järvi
Жанр: Classical
Страна-производитель диска: UK
Год издания диска: 2010
Издатель (лейбл): Chandos Records
Номер по каталогу: CHAN 10614
Дата записи: 2009
Аудиокодек: FLAC
Тип рипа: image+.cue
Битрейт аудио: lossless
Продолжительность: 75:50
Источник: собственный рип
Наличие сканов в содержимом раздачи: да
Треклист:
Johan Halvorsen (1864–1935)
[1]-[5] Suite ancienne, Op. 31a
[6]-[8] 3 Norwegian Dances*
for Violin and Orchestra
[9] Air norvégien, Op. 7*
for Violin and Orchestra
[10] Chant de la Veslemöy*
for Violin and String Orchestra
[11]-[14] Symphony No. 2 in D minor ‘Fatum’
Исполнители:
Marianne Thorsen violin*
Bergen Philharmonic Orchestra
Neeme Järvi

Лог создания рипа

Exact Audio Copy V1.1 from 23. June 2015
EAC extraction logfile from 14. October 2015, 22:10
Bergen Philharmonic Orchestra, Neeme Järvi / Halvorsen - Orchestral Works, Vol.2
Used drive : HL-DT-STDVDRAM GU70N Adapter: 1 ID: 0
Read mode : SecureUtilize accurate stream : YesDefeat audio cache : YesMake use of C2 pointers : No
Read offset correction : 48Overread into Lead-In and Lead-Out : NoFill up missing offset samples with silence : YesDelete leading and trailing silent blocks : NoNull samples used in CRC calculations : YesUsed interface : Native Win32 interface for Win NT & 2000
Used output format : User Defined EncoderSelected bitrate : 128 kBit/sQuality : HighAdd ID3 tag : NoCommand line compressor : C:\Program Files (x86)\Exact Audio Copy\Flac\flac.exeAdditional command line options : -V -8 -T "Date=%year%" -T "Genre=%genre%" %source%
TOC of the extracted CD
Track | Start | Length | Start sector | End sector --------------------------------------------------------- 1 | 0:00.00 | 4:52.28 | 0 | 21927 2 | 4:52.28 | 9:17.20 | 21928 | 63722 3 | 14:09.48 | 4:18.25 | 63723 | 83097 4 | 18:27.73 | 3:06.55 | 83098 | 97102 5 | 21:34.53 | 3:57.20 | 97103 | 114897 6 | 25:31.73 | 3:00.40 | 114898 | 128437 7 | 28:32.38 | 3:03.65 | 128438 | 142227 8 | 31:36.28 | 4:41.35 | 142228 | 163337 9 | 36:17.63 | 7:53.10 | 163338 | 198822 10 | 44:10.73 | 3:39.40 | 198823 | 215287 11 | 47:50.38 | 8:42.15 | 215288 | 254452 12 | 56:32.53 | 6:22.30 | 254453 | 283132 13 | 62:55.08 | 4:42.20 | 283133 | 304302 14 | 67:37.28 | 8:12.47 | 304303 | 341249
Range status and errors
Selected range
Filename C:\temp\Halvorsen - Orchestral Works, Vol.2\Halvorsen - Orchestral Works, Vol.2.wav
Peak level 97.0 % Extraction speed 2.3 X Range quality 100.0 % Test CRC E4429FD6 Copy CRC E4429FD6 Copy OK
No errors occurred
AccurateRip summary
Track 1 accurately ripped (confidence 2) [ED7E726E] (AR v2)Track 2 accurately ripped (confidence 2) [68AF0A4C] (AR v2)Track 3 accurately ripped (confidence 2) [B885EFCE] (AR v2)Track 4 accurately ripped (confidence 2) [44B46C7D] (AR v2)Track 5 accurately ripped (confidence 2) [E95B9D33] (AR v2)Track 6 accurately ripped (confidence 2) [91F449ED] (AR v2)Track 7 accurately ripped (confidence 2) [F641DFB0] (AR v2)Track 8 accurately ripped (confidence 2) [B98BA9AF] (AR v2)Track 9 accurately ripped (confidence 2) [79AE0249] (AR v2)Track 10 accurately ripped (confidence 2) [1E6B281A] (AR v2)Track 11 accurately ripped (confidence 2) [E3D9D48C] (AR v2)Track 12 accurately ripped (confidence 2) [3CCB829D] (AR v2)Track 13 accurately ripped (confidence 2) [2887CAA3] (AR v2)Track 14 accurately ripped (confidence 2) [F78E146B] (AR v2)
All tracks accurately ripped
End of status report
==== Log checksum 788EA6C848CA44C4E04D03CDF16DFCBF30CFA95E8CCC1888008698D157A83850 ====



Показать сообщения:    

Текущее время: 03-Дек 16:37

Часовой пояс: UTC + 3


Вы не можете начинать темы
Вы не можете отвечать на сообщения
Вы не можете редактировать свои сообщения
Вы не можете удалять свои сообщения
Вы не можете голосовать в опросах
Вы не можете прикреплять файлы к сообщениям
Вы не можете скачивать файлы