(Chamber) Маргарет Прайс - Верди / Margaret Price - Verdi Songs (Cycle for voice and piano) - 1987, FLAC (tracks+.cue), lossless


 

[Цитировать]

Margaret Price - Verdi Sogns
Жанр: Chamber
Страна-производитель диска: Германия
Год издания диска: 1987
Издатель (лейбл): Deutsche Grammophon
Дата записи: 1986
Аудиокодек: FLAC
Тип рипа: tracks+.cue
Битрейт аудио: lossless
Продолжительность: 57:24
Источник: релизер (Guillermo)
Исполнители:
Margaret Price, soprano,
Geoffrey Parsons, piano.

Лог создания рипа

Exact Audio Copy V1.0 beta 3 from 29. August 2011
EAC extraction logfile from 3. September 2015, 20:16
Margaret Price / [Disk 71] CANZONI
Used drive : HL-DT-STDVDRAM GH24NSC0 Adapter: 3 ID: 0
Read mode : SecureUtilize accurate stream : YesDefeat audio cache : YesMake use of C2 pointers : No
Read offset correction : 6Overread into Lead-In and Lead-Out : NoFill up missing offset samples with silence : YesDelete leading and trailing silent blocks : NoNull samples used in CRC calculations : YesUsed interface : Native Win32 interface for Win NT & 2000Gap handling : Appended to previous track
Used output format : User Defined EncoderSelected bitrate : 768 kBit/sQuality : HighAdd ID3 tag : NoCommand line compressor : C:\Program Files (x86)\Exact Audio Copy\FLAC\FLAC.EXEAdditional command line options : -8 -V -T "ARTIST=%artist%" -T "TITLE=%title%" -T "ALBUM=%albumtitle%" -T "DATE=%year%" -T "TRACKNUMBER=%tracknr%" -T "GENRE=%genre%" -T "PERFORMER=%albuminterpret%" -T "COMPOSER=%composer%" %haslyrics%--tag-from-file=LYRICS="%lyricsfile%"%haslyrics% -T "ALBUMARTIST=%albumartist%" -T "DISCNUMBER=%cdnumber%" -T "TOTALDISCS=%totalcds%" -T "TOTALTRACKS=%numtracks%" -T "COMMENT=%comment%" %source% -o %dest%
TOC of the extracted CD
Track | Start | Length | Start sector | End sector --------------------------------------------------------- 1 | 0:00.33 | 3:24.50 | 33 | 15382 2 | 3:25.08 | 3:31.07 | 15383 | 31214 3 | 6:56.15 | 3:21.30 | 31215 | 46319 4 | 10:17.45 | 2:29.40 | 46320 | 57534 5 | 12:47.10 | 4:35.35 | 57535 | 78194 6 | 17:22.45 | 4:28.18 | 78195 | 98312 7 | 21:50.63 | 2:56.32 | 98313 | 111544 8 | 24:47.20 | 2:15.00 | 111545 | 121669 9 | 27:02.20 | 8:16.45 | 121670 | 158914 10 | 35:18.65 | 4:21.28 | 158915 | 178517 11 | 39:40.18 | 4:00.55 | 178518 | 196572 12 | 43:40.73 | 3:13.62 | 196573 | 211109 13 | 46:54.60 | 2:59.28 | 211110 | 224562 14 | 49:54.13 | 1:50.67 | 224563 | 232879 15 | 51:45.05 | 5:39.43 | 232880 | 258347
Track 1
Filename f:\Users\Guillermo\Desktop\EAC convertidos\01 Il Tramonto.wav
Pre-gap length 0:00:02.44
Peak level 95.3 % Extraction speed 1.6 X Track quality 100.0 % Test CRC B4F86AB5 Copy CRC B4F86AB5 Copy OK
Track 2
Filename f:\Users\Guillermo\Desktop\EAC convertidos\02 La Seduzione.wav
Peak level 67.6 % Extraction speed 1.7 X Track quality 100.0 % Test CRC A8D457BD Copy CRC A8D457BD Copy OK
Track 3
Filename f:\Users\Guillermo\Desktop\EAC convertidos\03 Ad Una Stella.wav
Peak level 77.3 % Extraction speed 1.5 X Track quality 99.8 % Test CRC EC337CD0 Copy CRC EC337CD0 Copy OK
Track 4
Filename f:\Users\Guillermo\Desktop\EAC convertidos\04 Lo Spazzacamino.wav
Peak level 81.2 % Extraction speed 1.8 X Track quality 100.0 % Test CRC 267C4D4E Copy CRC 267C4D4E Copy OK
Track 5
Filename f:\Users\Guillermo\Desktop\EAC convertidos\05 Perduta Ho la Pace.wav
Peak level 70.7 % Extraction speed 2.2 X Track quality 100.0 % Test CRC 090C8204 Copy CRC 090C8204 Copy OK
Track 6
Filename f:\Users\Guillermo\Desktop\EAC convertidos\06 Deh, Pietoso, Oh Addolorata.wav
Peak level 80.7 % Extraction speed 2.3 X Track quality 100.0 % Test CRC 1B60ECE8 Copy CRC 1B60ECE8 Copy OK
Track 7
Filename f:\Users\Guillermo\Desktop\EAC convertidos\07 Chi I Bei Di M'Adduce Ancora.wav
Peak level 85.1 % Extraction speed 2.2 X Track quality 100.0 % Test CRC 26A526D4 Copy CRC 26A526D4 Copy OK
Track 8
Filename f:\Users\Guillermo\Desktop\EAC convertidos\08 La Zingara.wav
Peak level 80.1 % Extraction speed 2.1 X Track quality 100.0 % Test CRC 377667CA Copy CRC 377667CA Copy OK
Track 9
Filename f:\Users\Guillermo\Desktop\EAC convertidos\09 L'Esule.wav
Peak level 81.2 % Extraction speed 2.9 X Track quality 100.0 % Test CRC 4AF60718 Copy CRC 4AF60718 Copy OK
Track 10
Filename f:\Users\Guillermo\Desktop\EAC convertidos\10 Non T'Accostare All'Urna.wav
Peak level 54.8 % Extraction speed 2.8 X Track quality 100.0 % Test CRC 31BED928 Copy CRC 31BED928 Copy OK
Track 11
Filename f:\Users\Guillermo\Desktop\EAC convertidos\11 In Solitaria Stanza.wav
Peak level 76.3 % Extraction speed 2.9 X Track quality 100.0 % Test CRC 9B1E3F20 Copy CRC 9B1E3F20 Copy OK
Track 12
Filename f:\Users\Guillermo\Desktop\EAC convertidos\12 Nell'Orror Di Notte Oscura.wav
Peak level 86.5 % Extraction speed 2.8 X Track quality 100.0 % Test CRC B4F625B1 Copy CRC B4F625B1 Copy OK
Track 13
Filename f:\Users\Guillermo\Desktop\EAC convertidos\13 Il Poveretto.wav
Peak level 57.6 % Extraction speed 2.3 X Track quality 99.8 % Test CRC 7E9A969E Copy CRC 7E9A969E Copy OK
Track 14
Filename f:\Users\Guillermo\Desktop\EAC convertidos\14 Stornello.wav
Peak level 63.0 % Extraction speed 1.8 X Track quality 99.8 % Test CRC 038E0982 Copy CRC 038E0982 Copy OK
Track 15
Filename f:\Users\Guillermo\Desktop\EAC convertidos\15 Ave Maria.wav
Peak level 99.9 % Extraction speed 3.3 X Track quality 100.0 % Test CRC CE032E2B Copy CRC CE032E2B Copy OK
No errors occurred
End of status report
==== Log checksum 42B741495E62DAB74D818708DDB68868C121FAD79CBAE974B2B7F698F8D1481D ====

Содержание индексной карты (.CUE)

REM GENRE ClassicalREM DATE 1987REM DISCID C70D740FREM COMMENT "ExactAudioCopy v1.0b3"FILE "01 Il Tramonto.wav" WAVE TRACK 01 AUDIO PREGAP 00:00:33 INDEX 01 00:00:00FILE "02 La Seduzione.wav" WAVE TRACK 02 AUDIO INDEX 01 00:00:00FILE "03 Ad Una Stella.wav" WAVE TRACK 03 AUDIO INDEX 01 00:00:00FILE "04 Lo Spazzacamino.wav" WAVE TRACK 04 AUDIO INDEX 01 00:00:00FILE "05 Perduta Ho la Pace.wav" WAVE TRACK 05 AUDIO INDEX 01 00:00:00FILE "06 Deh, Pietoso, Oh Addolorata.wav" WAVE TRACK 06 AUDIO INDEX 01 00:00:00FILE "07 Chi I Bei Di M'Adduce Ancora.wav" WAVE TRACK 07 AUDIO INDEX 01 00:00:00FILE "08 La Zingara.wav" WAVE TRACK 08 AUDIO INDEX 01 00:00:00FILE "09 L'Esule.wav" WAVE TRACK 09 AUDIO INDEX 01 00:00:00FILE "10 Non T'Accostare All'Urna.wav" WAVE TRACK 10 AUDIO INDEX 01 00:00:00FILE "11 In Solitaria Stanza.wav" WAVE TRACK 11 AUDIO INDEX 01 00:00:00FILE "12 Nell'Orror Di Notte Oscura.wav" WAVE TRACK 12 AUDIO INDEX 01 00:00:00FILE "13 Il Poveretto.wav" WAVE TRACK 13 AUDIO INDEX 01 00:00:00FILE "14 Stornello.wav" WAVE TRACK 14 AUDIO INDEX 01 00:00:00FILE "15 Ave Maria.wav" WAVE TRACK 15 AUDIO INDEX 01 00:00:00

Треклист

Songs composed by Giuseppe Verdi:
1. Il tramonto (3:24)
2. La seduzione (3:31)
3. Ad una stella (3:21)
4. Lo spazzacamino (2:29)
5. Perduta ho la pace (4:35)
6. Deh, pietoso, oh Addolorata (4:28)
7. Chi i bei di m'adduce ancora (2:56)
8. La zingara (2:15)
9. L'esule (8:16)
10. Non t'accostare all'urna (4:21)
11. In solitaria stanza (4:00)
12. Nell'orror di notte oscura (3:13)
13. Il poveretto (2:59)
14. Stornello (1:50)
15. Ave Maria (5:39)



Показать сообщения:    

Текущее время: 08-Дек 21:12

Часовой пояс: UTC + 3


Вы не можете начинать темы
Вы не можете отвечать на сообщения
Вы не можете редактировать свои сообщения
Вы не можете удалять свои сообщения
Вы не можете голосовать в опросах
Вы не можете прикреплять файлы к сообщениям
Вы не можете скачивать файлы