(Classical) Эдуард Элгар - Вариации на собственную тему «Загадка» / Edward William Elgar - Enigma Variations, Cello Concerto, Pomp and Circumstance Marches - Philharmonia Orchestra, Giuseppe Sinopoli, Mischa Maisky - 2012, FLAC (image+.cue) lossless


 

[Цитировать]

Elgar - Enigma Variations, Cello Concerto, Pomp and Circumstance Marches
Жанр: Classical
Страна-производитель диска: EU
Год издания диска: 2012
Издатель (лейбл): Deutsche Grammophon
Номер по каталогу: 478 3619
Дата записи: 1990 - 1992
Аудиокодек: FLAC
Тип рипа: image+.cue
Битрейт аудио: lossless
Продолжительность: 01:14:35
Источник: собственный рип
Наличие сканов в содержимом раздачи: да
Треклист:
Cello Concerto in E minor, Op.85
01. I. Adagio - Moderato (7:47)
02. II. Lento - Allegro molto (4:08)
03. III. Adagio (5:03)
04. IV. Allegro (11:13)
Variations on an Original Theme, Op.36 - "Enigma"
05. Theme (Andante) (1:33)
06. I. C.A.E. (L'istesso tempo) (1:58)
07. II. H.D.S.-P. (Allegro) (0:52)
08. III. R.B.T. (Allegretto) (1:46)
09. IV. W.M.B. (Allegro di molto) (0:31)
10. V. R.P.A. (Moderato) (2:28)
11. VI. Ysobel (Andantino) (1:25)
12. VII. Troyte (Presto) (1:00)
13. VIII. W.N. (Allegretto) (2:25)
14. IX. Nimrod (Adagio) (3:58)
15. X. Intermezzo: Dorabella (Allegretto) (2:31)
16. XI. G.R.S. (Allegro di molto) (0:58)
17. XII. B.G.N. (Andante) (3:18)
18. XIII. Romanza *** (Moderato) (3:22)
19. XIV. Finale: E.D.U. (Allegro - Presto) (6:23)
20. "Pomp and Circumstance", op.39 - March No.1 in D major (6:32)
21. "Pomp and Circumstance", op.39 - March No.4 in G major (5:22)

Исполнители:
Giuseppe Sinopoli
Philharmonia Orchestra
Mischa Maisky (cello)

Лог создания рипа

Exact Audio Copy V1.0 beta 3 from 29. August 2011
Отчёт EAC об извлечении, выполненном 22. октября 2015, 14:20
Elgar / Enigma Variations, Cello Concerto
Дисковод: ASUS DRW-1814BL Adapter: 3 ID: 5
Режим чтения : ДостоверностьИспользование точного потока : ДаОтключение кэша аудио : ДаИспользование указателей C2 : Нет
Коррекция смещения при чтении : 6Способность читать области Lead-in и Lead-out : НетЗаполнение пропущенных сэмплов тишиной : ДаУдаление блоков с тишиной в начале и конце : НетПри вычислениях CRC использовались нулевые сэмплы : ДаИнтерфейс : Встроенный Win32-интерфейс для Win NT/2000
Выходной формат : Пользовательский кодировщикВыбранный битрейт : 128 kBit/sКачество : ВысокийДобавление ID3-тега : НетУтилита сжатия : C:\Program Files\Exact Audio Copy\Flac\flac.exeДополнительные параметры : -V -8 -T "Date=%year%" -T "Genre=%genre%" %source%
TOC извлечённого CD
Трек | Старт | Длительность | Начальный сектор | Конечный сектор --------------------------------------------------------------------- 1 | 0:00.00 | 7:47.03 | 0 | 35027 2 | 7:47.03 | 4:07.72 | 35028 | 53624 3 | 11:55.00 | 5:03.00 | 53625 | 76349 4 | 16:58.00 | 11:13.00 | 76350 | 126824 5 | 28:11.00 | 1:33.05 | 126825 | 133804 6 | 29:44.05 | 1:57.70 | 133805 | 142649 7 | 31:42.00 | 0:52.00 | 142650 | 146549 8 | 32:34.00 | 1:46.00 | 146550 | 154499 9 | 34:20.00 | 0:30.38 | 154500 | 156787 10 | 34:50.38 | 2:28.00 | 156788 | 167887 11 | 37:18.38 | 1:25.37 | 167888 | 174299 12 | 38:44.00 | 1:00.00 | 174300 | 178799 13 | 39:44.00 | 2:24.68 | 178800 | 189667 14 | 42:08.68 | 3:58.07 | 189668 | 207524 15 | 46:07.00 | 2:31.00 | 207525 | 218849 16 | 48:38.00 | 0:58.00 | 218850 | 223199 17 | 49:36.00 | 3:18.30 | 223200 | 238079 18 | 52:54.30 | 3:21.45 | 238080 | 253199 19 | 56:16.00 | 6:23.18 | 253200 | 281942 20 | 62:39.18 | 6:31.57 | 281943 | 311324 21 | 69:11.00 | 5:22.00 | 311325 | 335474
Характеристики диапазона извлечения и сообщения об ошибках
Выбранный диапазон
Имя файла C:\Documents and Settings\biotox\Рабочий стол\Новая папка (2)\Elgar - Enigma Variations, Cello Concerto.wav
Пиковый уровень 99.9 % Скорость извлечения 9.3 X Качество диапазона 100.0 % CRC теста 910FA278 CRC копии 910FA278 Копирование... OK
Ошибок не произошло
AccurateRip: сводка
Трек 1 : извлечено точно (доверие 14) [27E5DF9E] (AR v2)Трек 2 : извлечено точно (доверие 14) [F73C2FEC] (AR v2)Трек 3 : извлечено точно (доверие 14) [AFBEF974] (AR v2)Трек 4 : извлечено точно (доверие 14) [7C5BEE9A] (AR v2)Трек 5 : извлечено точно (доверие 14) [E8D220FD] (AR v2)Трек 6 : извлечено точно (доверие 14) [780AD2E7] (AR v2)Трек 7 : извлечено точно (доверие 14) [83AA0791] (AR v2)Трек 8 : извлечено точно (доверие 14) [C849C7D1] (AR v2)Трек 9 : извлечено точно (доверие 14) [6E3CE045] (AR v2)Трек 10 : извлечено точно (доверие 14) [C9E3E77B] (AR v2)Трек 11 : извлечено точно (доверие 14) [6BE9FDFF] (AR v2)Трек 12 : извлечено точно (доверие 14) [79922872] (AR v2)Трек 13 : извлечено точно (доверие 14) [5E8077A9] (AR v2)Трек 14 : извлечено точно (доверие 13) [7004020F] (AR v2)Трек 15 : извлечено точно (доверие 14) [AD078BAF] (AR v2)Трек 16 : извлечено точно (доверие 14) [EEE8CF6E] (AR v2)Трек 17 : извлечено точно (доверие 14) [86D71830] (AR v2)Трек 18 : извлечено точно (доверие 14) [934A23C9] (AR v2)Трек 19 : извлечено точно (доверие 14) [D520595F] (AR v2)Трек 20 : извлечено точно (доверие 13) [9600288E] (AR v2)Трек 21 : извлечено точно (доверие 13) [80FA5522] (AR v2)
Все треки извлечены точно
Конец отчёта
==== Контрольная сумма отчёта E69E36F618343A012DF5B8E571B65D2834E9BA0A9B013DEE4735DF34A15309C4 ====

Замер динамического диапазона

foobar2000 1.2.9 / Замер динамического диапазона (DR) 1.1.1Дата отчёта: 2015-10-22 23:44:55
--------------------------------------------------------------------------------Анализ: Elgar / Enigma Variations, Cello Concerto--------------------------------------------------------------------------------
DR Пики RMS Продолжительность трека--------------------------------------------------------------------------------DR16 0.00 дБ -22.33 дБ 7:47 01-Cello Concerto in e minor-1.AdagioDR18 -0.34 дБ -25.14 дБ 4:08 02-Cello Concerto in e minor-2.Allegro moltoDR15 -5.04 дБ -28.34 дБ 5:03 03-Cello Concerto in e minor-3.AdagioDR16 0.00 дБ -21.51 дБ 11:13 04-Cello Concerto in e minor-4.Allegro-moderatoDR11 -10.08 дБ -27.35 дБ 1:33 05-Enigma Variation-0.EnigmaDR13 0.00 дБ -20.31 дБ 1:58 06-Enigma Variation-1.C.A.EDR11 -11.14 дБ -28.98 дБ 0:52 07-Enigma Variation-2.H.D.S.-PDR14 -2.18 дБ -23.24 дБ 1:46 08-Enigma Variation-3.R.B.TDR11 0.00 дБ -15.42 дБ 0:31 09-Enigma Variation-4.W.M.BDR12 -5.67 дБ -24.12 дБ 2:28 10-Enigma Variation-5.R.P.ADR12 -5.40 дБ -26.25 дБ 1:25 11-Enigma Variation-6.YsobelDR13 -0.04 дБ -15.28 дБ 1:00 12-Enigma Variation-7.TroyteDR12 -6.89 дБ -25.00 дБ 2:25 13-Enigma Variation-8.W.NDR13 0.00 дБ -18.42 дБ 3:58 14-Enigma Variation-9.NimrodDR13 -6.92 дБ -30.10 дБ 2:31 15-Enigma Variation-10.IntermezzoDR12 0.00 дБ -15.73 дБ 0:58 16-Enigma Variation-11.G.R.SDR12 -7.35 дБ -27.71 дБ 3:18 17-Enigma Variation-12.B.G.NDR15 -3.89 дБ -27.65 дБ 3:22 18-Enigma Variation-13.RomanzaDR10 0.00 дБ -14.07 дБ 6:23 19-Enigma Variation-14.FinaleDR10 -0.04 дБ -13.17 дБ 6:32 20-Pomp and Circumstance,Op39-1DR11 -0.04 дБ -14.18 дБ 5:22 21-Pomp and Circumstance,Op39-4--------------------------------------------------------------------------------
Количество треков: 21Реальные значения DR: DR13
Частота: 44100 ГцКаналов: 2Разрядность: 16Битрейт: 584 кбит/сКодек: FLAC================================================================================



Показать сообщения:    

Текущее время: 05-Дек 17:36

Часовой пояс: UTC + 3


Вы не можете начинать темы
Вы не можете отвечать на сообщения
Вы не можете редактировать свои сообщения
Вы не можете удалять свои сообщения
Вы не можете голосовать в опросах
Вы не можете прикреплять файлы к сообщениям
Вы не можете скачивать файлы