Вознесение Матушки Кюстерс / Mutter Küsters' Fahrt zum Himmel / Mother Kuesters Trip to Heaven (Райнер Вернер Фассбиндер / Rainer Werner Fassbinder) [1975, Германия (ФРГ), Драма, DVD5 (Custom)]VO +Sub Eng , Rus+Original Ger / Arrow Films


Статистика раздачи [Обновить пиров]
Размер:  4.37 GB   |    Зарегистрирован:  1 год 1 месяц   |    Скачан:  1 раз

Полного источника не было: 4 месяца 26 дней

Личеров:  2  [  0 KB/s  ]   Подробная статистика пиров
 
   
 
 
 

[Цитировать]

Вознесение Матушки Кюстерс / Mutter Küsters' Fahrt zum Himmel / Mother Kuesters Trip to Heaven / Arrow Films
Страна:Германия (ФРГ)
Студия:Filmverlag der Autoren, Tango Film.
Жанр:ДрамаГод выпуска:1975
Продолжительность:01:52:46Перевод:Одноголосый (закадровый)
Cубтитры:Английские, Русские imvolk-13
Оригинальная аудиодорожка:Немецкий
Премьера (мир):7.07.1975
Режиссер:Райнер Вернер Фассбиндер / Rainer Werner FassbinderВ ролях:Бригитта Мира, Ингрид Кавен, Маргит Карстенсен, Карлхайнц Бём, Ирм Херманн, Готфрид Йон, Петер Керн, Курт Рааб, Густав Хольцапфель, Лило ПемпайтОписание:Бригитте Мира представляет домохозяйку, Эмму Кюстерс, чей муж, безропотный рабочий, не выдержал однажды нервного напряжения, убил своего босса и покончил жизнь самоубийством. Бедная вдова тщетно пытается понять своим жалким умом: отчего это произошло? Какова причина отчуждения её детей, равнодушия окружающих, нахальства и бесцеремонности газетчиков, решивших раздуть настоящий скандал и сделать из покойного супруга одиозную фигуру сумасшедшего или неуравновешенного негодяя?
Доп. информация:Исходник найден в сети.Русские субтитры на финальные 10 минут фильма взяты у imvolk-13.Реавторинг Нордер.Огромное Спасибо Всем, без чьей помощи этот релиз не состоялся бы!Сценарий:Райнер Вернер Фассбиндер, Курт Рааб, Генрих Цилле
Оператор:Михаэль БалльхаусКомпозитор:Пер РабенХудожник:Курт Рааб, Рюдигер ШмидМонтаж:Теа Эймеш

Это интересно

Фасбиндер, Райнер Вернер-https://ru.wikipedia.org/wiki/Фасбиндер,_Райнер_Вернер
Фильм-[url=https://en.wikipedia.org/wiki/Mother_K%C3%BCsters'_Trip_to_Heaven]https://en.wikipedia.org/wiki/Mother_K%C3%BCsters'_Trip_to_Heaven[/url]

Награды и номинации

Рецензия

Софт

PGCDemux (извлечение).
BeSweet, Sony Vegas 9 (звук).
DVD-lab PRO 2, Subtitle Workshop (субтитры).
MuxMan (сборка). DvdReMakePro (финал).

Бонусы

Первоначально по сценарию фильм заканчивался сценой, которая не вошла в окончательную редакцию фильма.В окончательной редакции фильм кончается смертью Матушки Кюстерс.В первоначальном варианте она оставалась жива. Но R.W.F решил использовать этот вариант только в американской версии фильма.
В данном двд, в качестве приложения, приведен и первоначальный вариант окончания - около 10 минут .
Меню:Английский, статичное, неозвученное.Сэмпл:https://www.sendspace.com/file/sojsxoТип релиза:DVD5 (Custom)
Контейнер:DVD-Video
Видео:PAL 4:3 (720x576) VBR, 4956 Кбит/сек, 25,000 кадров/секАудио 1:Русский:AC3, 2 ch, 48.0 KHz, 192 Кбит/сек / Одноголосый (закадровый)Аудио 2:Немецкий:AC3, 2 ch, 48.0 KHz, 192 Кбит/сек / (Оригинал)Формат субтитров:prerendered (DVD/IDX+SUB)

Dvd Info

Title: W(media)
Size: 4.37 Gb ( 4 582 374 KBytes ) - DVD-5
Enabled regions: 1, 2, 3, 4, 5, 6, 7, 8
VTS_01 :
Play Length: 01:52:46
Video: PAL 4:3 (720x576) VBR
Audio:
Russian (Dolby AC3, 2 ch)
Deutsch (Dolby AC3, 2 ch)
Subtitles:
English
Russian

Mediainfo

Общее
Полное имя : F:Mutter Kusters Fahrt zum Himmel DVD-5_Custom\VIDEO_TS\VTS_01_1.VOB
Формат : MPEG-PS
Размер файла : 1024 Мбайт
Продолжительность : 26 м.
Режим общего битрейта : Переменный
Общий поток : 5448 Кбит/сек
Видео
Идентификатор : 224 (0xE0)
Формат : MPEG Video
Версия формата : Version 2
Профиль формата : Main@Main
Параметр BVOP формата : Да
Параметр матрицы формата : По умолчанию
Параметр GOP формата : M=3, N=13
Структура изображения : Frame
Продолжительность : 26 м.
Вид битрейта : Переменный
Битрейт : 4956 Кбит/сек
Максимальный битрейт : 8000 Кбит/сек
Ширина : 720 пикселей
Высота : 576 пикселей
Соотношение сторон : 4:3
Частота кадров : 25,000 кадров/сек
Стандарт вещания : PAL
Цветовое пространство : YUV
Субдискретизация насыщенности : 4:2:0
Битовая глубина : 8 бит
Тип развёртки : Чересстрочная
Порядок развёртки : Верхнее поле первое
Метод сжатия : С потерями
Бит/(Пиксели*Кадры) : 0.478
Временной код первого кадра : 09:59:59:00
Оригинал временного кода : Group of pictures header
GOP, открыто/закрыто : Открыто
Размер потока : 931 Мбайт (91%)
Основные цвета : BT.601 PAL
Характеристики трансфера : BT.470 System B, BT.470 System G
Коэффициенты матрицы : BT.601
Аудио #1
Идентификатор : 189 (0xBD)-128 (0x80)
Формат : AC-3
Формат/Информация : Audio Coding 3
Расширение режима : CM (complete main)
Параметр Endianness формата : Big
Режим смешивания : DVD-Video
Продолжительность : 26 м.
Вид битрейта : Постоянный
Битрейт : 192 Кбит/сек
Каналы : 2 канала
Расположение каналов : Front: L R
Частота : 48,0 КГц
Метод сжатия : С потерями
Размер потока : 36,1 Мбайт (4%)
Аудио #2
Идентификатор : 189 (0xBD)-129 (0x81)
Формат : AC-3
Формат/Информация : Audio Coding 3
Расширение режима : CM (complete main)
Параметр Endianness формата : Big
Режим смешивания : DVD-Video
Продолжительность : 26 м.
Вид битрейта : Постоянный
Битрейт : 192 Кбит/сек
Каналы : 2 канала
Расположение каналов : Front: L R
Частота : 48,0 КГц
Метод сжатия : С потерями
Размер потока : 36,1 Мбайт (4%)
Текст
Идентификатор : 189 (0xBD)-32 (0x20)
Формат : RLE
Формат/Информация : Run-length encoding
Режим смешивания : DVD-Video

Скриншоты меню


Скриншоты

Полиграфия



[teatrix.ru].t9609.torrent 
Торрент: Зарегистрирован [ 2015-10-23 15:33 ] · 136B328078AF74CC074D00A9525EE9A3C4DCFAEE

Скачать .torrent

Скачать

23 KB

Статус: проверено
Скачан: 1 раз
Размер: 4.37 GB
terms.php



Быстрый ответ

Имя:

      
Для отправки сообщений необходимо включить JavaScript
Показать сообщения:    

Текущее время: 09-Дек 20:21

Часовой пояс: UTC + 3


Вы можете начинать темы
Вы можете отвечать на сообщения
Вы не можете редактировать свои сообщения
Вы не можете удалять свои сообщения
Вы не можете голосовать в опросах
Вы не можете прикреплять файлы к сообщениям
Вы можете скачивать файлы