(Opera) Puccini - La Boheme (Highlights) / Джакомо Пуччини - Богема (Ricciarelli, Carreras, Wixell, Hagegard - Orchestra & Chorus of the Royal Opera House Covent Garden, Davis) - 1998, MP3 (image+.cue) 320 kbps


Статистика раздачи [Обновить пиров]
Размер:  162 MB   |    Зарегистрирован:  1 год 1 месяц   |    Скачан:  0 раз

Полного источника не было: Никогда

Личеров:  2  [  0 KB/s  ]   Подробная статистика пиров
 
   
 
 
 

[Цитировать]

Giacomo Puccini - La Bohème, Highlights - Джакомо Пуччини - Богема
Жанр: Opera
Страна-производитель диска: Germany
Год издания: 1998
Издатель (лейбл): Philips
Номер по каталогу: 462 480-2
Дата записи: 1979
Аудиокодек: MP3
Тип рипа: image+.cue
Битрейт аудио: 320 kbps
Продолжительность: 70'11
Источник: CD
Наличие сканов в содержимом раздачи: да
Треклист:
1. Act 1: Questo Mar Rosso
2. Si senti meglio?
3. Che gelida mannina
4. Si mi chiamano Mimi
5. O soave fanciulla
6. Act 2: Aranci datteri!
7. Chi guardi?
8. Cuando ma n'v'o
9. Caro! - Fuori il Parpignoli
10. Act 3: Mimi! - Rudolfo m'ama e mi fugge
11. Mimi e' tanto malata
12. Donde lieta usci
13. Addio dolce svegliare
14. Act 4: In un coupe'? - O Mimi
15. Vecchia zimarra, senti
16. Sono andati?
17. Oh Dio! - Che ha detto il medico?
Исполнители:
Giacomo Puccini - La Bohème, Highlights
Dramma lirico in four acts
Libretto: Giuseppe Giacosa & Luigi Illica after Henry Murger's Scenes de la vie de Bohème
Mimi - Katia Riccitelli
Rodolfo - Jose Carreras
Marcello - Ingvar Wixell
Schaunard - Hagan Hagegard
Colline - Robert Lloyd
Musetta - Ashley Putnam
Orchestra & Chorus of the Royal Opera House Covent Garden
Sir Colin Davis
Содержание индексной карты (.CUE)
REM ACCURATERIPID 002a637c-02167321-e5107311
REM GENRE "Opera"
REM DATE 1979
REM DISCID E5107311
REM COMMENT "ExactAudioCopy v1.0b6"
CATALOG 0028946248027
PERFORMER "Ricciarelli_Carreras_Wixell_Royal_Opera_House_Covent_Garden_Davis"
TITLE "Puccini - La Bohème highligts, Davis"
FILE "Puccini - La Bohème highligts, Davis.mp3" WAVE
TRACK 01 AUDIO
TITLE "Act 1: Questo Mar Rosso"
PERFORMER "Ricciarelli_Carreras_Wixell_Royal_Opera_House_Covent_Garden_Davis"
INDEX 01 00:00:00
TRACK 02 AUDIO
TITLE "-Si senti meglio?"
PERFORMER "Ricciarelli_Carreras_Wixell_Royal_Opera_House_Covent_Garden_Davis"
INDEX 01 04:17:49
TRACK 03 AUDIO
TITLE "Che gelida mannina"
PERFORMER "Ricciarelli_Carreras_Wixell_Royal_Opera_House_Covent_Garden_Davis"
INDEX 01 07:58:39
TRACK 04 AUDIO
TITLE "Si MI chiamano MIMI"
PERFORMER "Ricciarelli_Carreras_Wixell_Royal_Opera_House_Covent_Garden_Davis"
INDEX 01 12:45:45
TRACK 05 AUDIO
TITLE "O soave fanciulla"
PERFORMER "Ricciarelli_Carreras_Wixell_Royal_Opera_House_Covent_Garden_Davis"
INDEX 01 17:39:49
TRACK 06 AUDIO
TITLE "Act 2: Aranci datteri!"
PERFORMER "Ricciarelli_Carreras_Wixell_Royal_Opera_House_Covent_Garden_Davis"
INDEX 01 22:02:01
TRACK 07 AUDIO
TITLE "Chi guardi?"
PERFORMER "Ricciarelli_Carreras_Wixell_Royal_Opera_House_Covent_Garden_Davis"
INDEX 01 24:49:19
TRACK 08 AUDIO
TITLE "Cuando ma n'v'o"
PERFORMER "Ricciarelli_Carreras_Wixell_Royal_Opera_House_Covent_Garden_Davis"
INDEX 01 28:21:49
TRACK 09 AUDIO
TITLE "Caro! - Fuori il Parpignoli"
PERFORMER "Ricciarelli_Carreras_Wixell_Royal_Opera_House_Covent_Garden_Davis"
INDEX 01 33:22:19
TRACK 10 AUDIO
TITLE "Act 3: Mimi! - Rudolfo m'ama e mi fugge"
PERFORMER "Ricciarelli_Carreras_Wixell_Royal_Opera_House_Covent_Garden_Davis"
INDEX 01 35:30:49
TRACK 11 AUDIO
TITLE "Mimi e' tanto malata"
PERFORMER "Ricciarelli_Carreras_Wixell_Royal_Opera_House_Covent_Garden_Davis"
INDEX 01 39:44:24
TRACK 12 AUDIO
TITLE "Donde lieta usci"
PERFORMER "Ricciarelli_Carreras_Wixell_Royal_Opera_House_Covent_Garden_Davis"
INDEX 01 43:04:12
TRACK 13 AUDIO
TITLE "Addio dolce svegliare"
PERFORMER "Ricciarelli_Carreras_Wixell_Royal_Opera_House_Covent_Garden_Davis"
INDEX 01 46:22:13
TRACK 14 AUDIO
TITLE "Act 4: In un coupe'? - O Mimi"
PERFORMER "Ricciarelli_Carreras_Wixell_Royal_Opera_House_Covent_Garden_Davis"
INDEX 01 51:52:61
TRACK 15 AUDIO
TITLE "Vecchia zimarra, senti"
PERFORMER "Ricciarelli_Carreras_Wixell_Royal_Opera_House_Covent_Garden_Davis"
INDEX 01 56:18:61
TRACK 16 AUDIO
TITLE "Sono andati?"
PERFORMER "Ricciarelli_Carreras_Wixell_Royal_Opera_House_Covent_Garden_Davis"
INDEX 01 58:31:48
TRACK 17 AUDIO
TITLE "Oh Dio! - Che ha detto il medico?"
PERFORMER "Ricciarelli_Carreras_Wixell_Royal_Opera_House_Covent_Garden_Davis"
INDEX 01 64:26:56
[teatrix.ru].t9611.torrent 
Торрент: Зарегистрирован [ 2015-10-23 16:10 ] · ECBD9BEEEB4B55A04A46BC14A93A115E1B9FDCF8

Скачать .torrent

Скачать

14 KB

Статус: проверено
Скачан: 0 раз
Размер: 162 MB
terms.php



Быстрый ответ

Имя:

      
Для отправки сообщений необходимо включить JavaScript
Показать сообщения:    

Текущее время: 06-Дек 22:53

Часовой пояс: UTC + 3


Вы можете начинать темы
Вы можете отвечать на сообщения
Вы не можете редактировать свои сообщения
Вы не можете удалять свои сообщения
Вы не можете голосовать в опросах
Вы не можете прикреплять файлы к сообщениям
Вы можете скачивать файлы