(Classic) Maurice Ravel (Морис Равель) - Bolero, Сonсert for Piano & Orchestra G-major, Rhapsodie espagnole, Valses nobles et sentimentales (Samo Hubad / Marko Munih / Milan Horvat / Henry Adolph/ Mi Chou Lee) - 1996, APE (image+.cue) lossless


Статистика раздачи [Обновить пиров]
Размер:  234 MB   |    Зарегистрирован:  1 год 1 месяц   |    Скачан:  0 раз

Полного источника не было: Никогда

Личеров:  1  [  0 KB/s  ]   Подробная статистика пиров
 
   
 
 
 

[Цитировать]

Maurice Ravel - Bolero, Сonсert for Piano & Orchestra G-major, Rhapsodie espagnole, Valses nobles et sentimentales (Radio-Sinfonieorchester Ljubljana - Samo Hubad, Radio-Sinfonieorchester Ljubljana - Marko Munih, Osterreichisches Radio-Sinfonieorchester - Milan Horvat, Philharmonica Slavonica - Henry Adolph)
Жанр: Classic
Страна-производитель диска: ФРГ
Год издания диска: 1996
Издатель (лейбл): Mediaphon
Дата записи: 1988 - 1992
Аудиокодек: APE
Тип рипа: image+.cue
Битрейт аудио: lossless
Продолжительность: 67' 20"
Источник: собственный рип
Наличие сканов в содержимом раздачи: да
Треклист
1. Bolero
Radio-Sinfonieorchester Ljubljana, Dir.: Samo Hubad (1988)
Konzert fur Klavier & Orchester G-Dur
2. Allegramente
3. Adagio assai
4. Presto
Radio-Sinfonieorchester Ljubljana, Dir.: Marko Munih (1991)
Mi Chou Lee - piano
Rhapsodie espagnole
5. Prelude а la nuit
6. Malaguena
7. Habanyera
8. Feria
Osterreichisches Radio-Sinfonieorchester, Dir.: Milan Horvat (1991)
Valses nobles et sentimentales
9. Modere
10. Assez lent
11. Modere - assez anime - presque lent
12. Assez vif - moins vif
13. Epilogue - lent
Philharmonica Slavonica, Dir.: Henry Adolph (1992)

Исполнители

Radio-Sinfonieorchester Ljubljana, Dir.: Samo Hubad
Mi Chou Lee, Klavier - Radio-Sinfonieorchester Ljubljana, Dir.: Marko Munih
Osterreichisches Radio-Sinfonieorchester, Dir.: Milan Horvat
Philharmonica Slavonica, Dir.: Henry Adolph

Лог создания рипа

Exact Audio Copy V0.99 prebeta 4 from 23. January 2008
Отчёт EAC об извлечении, выполненном 18. ноября 2010, 0:27
Ravel, Maurice / Bolero . Valses
Дисковод: TEAC DW-224E-A Adapter: 1 ID: 0
Режим чтения : ДостоверностьИспользование точного потока : ДаОтключение кэша аудио : ДаИспользование указателей C2 : Нет
Коррекция смещения при чтении : 102Способность читать области Lead-in и Lead-out : НетЗаполнение пропущенных сэмплов тишиной : ДаУдаление блоков с тишиной в начале и конце : НетПри вычислениях CRC использовались нулевые сэмплы : ДаИнтерфейс : Встроенный Win32-интерфейс для Win NT/2000
Выходной формат : Внутренние WAV-операцииФормат сэмплов : 44.100 Гц; 16 бит; стерео
TOC извлечённого CD
Трек | Старт | Длительность | Начальный сектор | Конечный сектор --------------------------------------------------------------------- 1 | 0:00.37 | 13:52.00 | 37 | 62436 2 | 13:52.37 | 8:45.65 | 62437 | 101876 3 | 22:38.27 | 8:43.68 | 101877 | 141169 4 | 31:22.20 | 4:12.17 | 141170 | 160086 5 | 35:34.37 | 4:14.20 | 160087 | 179156 6 | 39:48.57 | 2:15.60 | 179157 | 189341 7 | 42:04.42 | 2:33.65 | 189342 | 200881 8 | 44:38.32 | 6:20.05 | 200882 | 229386 9 | 50:58.37 | 1:24.38 | 229387 | 235724 10 | 52:23.00 | 3:04.40 | 235725 | 249564 11 | 55:27.40 | 4:20.55 | 249565 | 269119 12 | 59:48.20 | 3:32.55 | 269120 | 285074 13 | 63:21.00 | 3:59.05 | 285075 | 303004
Характеристики диапазона извлечения и сообщения об ошибках
Выбранный диапазон
Имя файла D:\My Sounds\_ape\Ravel\Ravel, Maurice - Bolero . Valses.wav
Пиковый уровень 79.0 % Качество диапазона 100.0 % CRC копии 2FA5DE62 Копирование... OK
Ошибок не произошло
Конец отчёта
[teatrix.ru].t9613.torrent 
Торрент: Зарегистрирован [ 2015-10-23 17:11 ] · 94E996FB3D4110EA56B8C65569074122AA4BA479

Скачать .torrent

Скачать

19 KB

Статус: проверено
Скачан: 0 раз
Размер: 234 MB
terms.php



Быстрый ответ

Имя:

      
Для отправки сообщений необходимо включить JavaScript
Показать сообщения:    

Текущее время: 10-Дек 23:33

Часовой пояс: UTC + 3


Вы можете начинать темы
Вы можете отвечать на сообщения
Вы не можете редактировать свои сообщения
Вы не можете удалять свои сообщения
Вы не можете голосовать в опросах
Вы не можете прикреплять файлы к сообщениям
Вы можете скачивать файлы