(Classical, Violin, Cello) Tigran Mansurian / Тигран Мансурян - Quasi parlando {Patricia Kopatchinskaja / Патриция Копачинская, Anja Lechner, Amsterdam Sinfonietta} - 2014 (ECM New Series 2323), FLAC (tracks+.cue), lossless


Статистика раздачи [Обновить пиров]
Размер:  290 MB   |    Зарегистрирован:  1 год 1 месяц   |    Скачан:  0 раз

Полного источника не было: Никогда

Личеров:  1  [  0 KB/s  ]   Подробная статистика пиров
 
   
 
 
 

[Цитировать]

Patricia Kopatchinskaja & Anja Lechner - Mansurian: Quasi parlando
Жанр: Classical, Violin, Cello
Страна-производитель диска: Германия
Год издания диска: 2014
Издатель (лейбл): ECM Records
Номер по каталогу: ECM 2323
Аудиокодек: FLAC
Тип рипа: tracks+.cue
Битрейт аудио: lossless
Продолжительность: 1:02:35
Источник (релизер): BlackPeteW (what)
Наличие сканов в содержимом раздачи: да
Треклист:
Tigran Mansurian (b. 1939)
Double Concerto (1978) for violin, violoncello and string orchestra
01. I. Largo concentrando (13:09)
02. II. Largo sostenuto (9:38)
03. Romance (2011) for violin and string orchestra (9:25)
04. Quasi parlando (2012) for violoncello and string orchestra (8:00)
Concerto No.2 "Four Serious Songs" (2006) for violin and string orchestra
05. I. Andante con moto (6:20)
06. II. Andante mosso, agitato (7:44)
07. III. Allegro vivace (1:08)
08. IV. Con moto, molto semplice (7:11)
Исполнители:
Patricia Kopatchinskaja - violin
Anja Lechner - violoncello
Amsterdam Sinfonietta
Candida Thompson - lead violin
Recorded at Muziekgebouw aan 't IJ, Amsterdam in October 2012.

Лог создания рипа

Exact Audio Copy V1.0 beta 3 from 29. August 2011
EAC extraction logfile from 6. June 2014, 12:59
Tigran Mansurian / Quasi Parlando
Used drive : Optiarc DVD RW AD-7240S Adapter: 3 ID: 1
Read mode : SecureUtilize accurate stream : YesDefeat audio cache : YesMake use of C2 pointers : No
Read offset correction : 48Overread into Lead-In and Lead-Out : NoFill up missing offset samples with silence : YesDelete leading and trailing silent blocks : NoNull samples used in CRC calculations : YesUsed interface : Installed external ASPI interfaceGap handling : Appended to previous track
Used output format : User Defined EncoderSelected bitrate : 896 kBit/sQuality : HighAdd ID3 tag : NoCommand line compressor : C:\Program Files\Exact Audio Copy\Flac\flac.exeAdditional command line options : -8 -V -T "ARTIST=%artist%" -T "TITLE=%title%" -T "ALBUM=%albumtitle%" -T "DATE=%year%" -T "TRACKNUMBER=%tracknr%" -T "TOTALTRACKS=%numtracks%" -T "GENRE=%genre%" -T "ALBUMARTIST=%albumartist%" -T "ALBUM ARTIST=%albumartist%" -T "COMMENT=EAC Secure Mode, Test & Copy, AccurateRip, FLAC -8" %source%
TOC of the extracted CD
Track | Start | Length | Start sector | End sector --------------------------------------------------------- 1 | 0:00.00 | 13:09.19 | 0 | 59193 2 | 13:09.19 | 9:37.68 | 59194 | 102536 3 | 22:47.12 | 9:24.38 | 102537 | 144874 4 | 32:11.50 | 8:00.13 | 144875 | 180887 5 | 40:11.63 | 6:20.19 | 180888 | 209406 6 | 46:32.07 | 7:43.52 | 209407 | 244183 7 | 54:15.59 | 1:08.34 | 244184 | 249317 8 | 55:24.18 | 7:10.38 | 249318 | 281605
Track 1
Filename F:\AneL\MY RIPS\01 - Double Concerto - Largo concentrando.wav
Pre-gap length 0:00:02.00
Peak level 95.9 % Extraction speed 2.9 X Track quality 100.0 % Test CRC 3A02FB64 Copy CRC 3A02FB64 Accurately ripped (confidence 3) [EE0F00D6] (AR v2) Copy OK
Track 2
Filename F:\AneL\MY RIPS\02 - Double Concerto - Largo sostenuto.wav
Peak level 18.8 % Extraction speed 3.5 X Track quality 100.0 % Test CRC D45A2496 Copy CRC D45A2496 Accurately ripped (confidence 3) [7B1390E9] (AR v2) Copy OK
Track 3
Filename F:\AneL\MY RIPS\03 - Romance.wav
Pre-gap length 0:00:10.33
Peak level 64.0 % Extraction speed 4.0 X Track quality 100.0 % Test CRC FF63FD89 Copy CRC FF63FD89 Accurately ripped (confidence 3) [97C2F3D8] (AR v2) Copy OK
Track 4
Filename F:\AneL\MY RIPS\04 - Quasi Parlando.wav
Pre-gap length 0:00:05.40
Peak level 48.2 % Extraction speed 4.3 X Track quality 100.0 % Test CRC 4B427350 Copy CRC 4B427350 Accurately ripped (confidence 3) [CF0F8704] (AR v2) Copy OK
Track 5
Filename F:\AneL\MY RIPS\05 - Concerto No 2 Four Serious Songs - Andante con moto.wav
Pre-gap length 0:00:05.31
Peak level 32.6 % Extraction speed 4.5 X Track quality 100.0 % Test CRC 903E0755 Copy CRC 903E0755 Accurately ripped (confidence 3) [9A9C6D13] (AR v2) Copy OK
Track 6
Filename F:\AneL\MY RIPS\06 - Concerto No 2 Four Serious Songs - Andante mosso, agitato.wav
Peak level 70.3 % Extraction speed 4.9 X Track quality 100.0 % Test CRC D179C21D Copy CRC D179C21D Accurately ripped (confidence 3) [424F150A] (AR v2) Copy OK
Track 7
Filename F:\AneL\MY RIPS\07 - Concerto No 2 Four Serious Songs - Allegro vivace.wav
Peak level 66.9 % Extraction speed 3.5 X Track quality 100.0 % Test CRC 6B16F48D Copy CRC 6B16F48D Accurately ripped (confidence 3) [8A04DDCD] (AR v2) Copy OK
Track 8
Filename F:\AneL\MY RIPS\08 - Concerto No 2 Four Serious Songs - Con moto, molto semplice.wav
Peak level 61.3 % Extraction speed 5.1 X Track quality 100.0 % Test CRC 58BCEB72 Copy CRC 58BCEB72 Accurately ripped (confidence 3) [7546BE8F] (AR v2) Copy OK
All tracks accurately ripped
No errors occurred
End of status report
==== Log checksum E6232694841713E2C741032F183D546731BDEA329A39196CB1B1F1A02E5B201E ====

Содержание индексной карты (.CUE)

REM GENRE ClassicalREM DATE 2014REM DISCID 750EAA08REM COMMENT "ExactAudioCopy v1.0b3"PERFORMER "Patricia Kopatchinskaja & Anja Lechner"TITLE "Mansurian: Quasi parlando"FILE "01 - Double Concerto- I. Largo concentrando.wav" WAVE TRACK 01 AUDIO TITLE "Double Concerto: I. Largo concentrando" PERFORMER "Patricia Kopatchinskaja & Anja Lechner" INDEX 01 00:00:00FILE "02 - Double Concerto- II. Largo sostenuto.wav" WAVE TRACK 02 AUDIO TITLE "Double Concerto: II. Largo sostenuto" PERFORMER "Patricia Kopatchinskaja & Anja Lechner" INDEX 01 00:00:00 TRACK 03 AUDIO TITLE "Romance" PERFORMER "Patricia Kopatchinskaja & Anja Lechner" INDEX 00 09:27:35FILE "03 - Romance.wav" WAVE INDEX 01 00:00:00 TRACK 04 AUDIO TITLE "Quasi parlando" PERFORMER "Patricia Kopatchinskaja & Anja Lechner" INDEX 00 09:18:73FILE "04 - Quasi parlando.wav" WAVE INDEX 01 00:00:00 TRACK 05 AUDIO TITLE "Concerto No.2 'Four Serious Songs': I. Andante con moto" PERFORMER "Patricia Kopatchinskaja & Anja Lechner" INDEX 00 07:54:57FILE "05 - Concerto No.2 'Four Serious Songs'- I. Andante con moto.wav" WAVE INDEX 01 00:00:00FILE "06 - Concerto No.2 'Four Serious Songs'- II. Andante mosso, agitato.wav" WAVE TRACK 06 AUDIO TITLE "Concerto No.2 'Four Serious Songs': II. Andante mosso, agitato" PERFORMER "Patricia Kopatchinskaja & Anja Lechner" INDEX 01 00:00:00FILE "07 - Concerto No.2 'Four Serious Songs'- III. Allegro vivace.wav" WAVE TRACK 07 AUDIO TITLE "Concerto No.2 'Four Serious Songs': III. Allegro vivace" PERFORMER "Patricia Kopatchinskaja & Anja Lechner" INDEX 01 00:00:00FILE "08 - Concerto No.2 'Four Serious Songs'- IV. Con moto, molto semplice.wav" WAVE TRACK 08 AUDIO TITLE "Concerto No.2 'Four Serious Songs': IV. Con moto, molto semplice" PERFORMER "Patricia Kopatchinskaja & Anja Lechner" INDEX 01 00:00:00

Review by Hrayr Attarian

Armenian composer Tigran Mansurian's poignant and introspective Quasi Parlando on ECM consists of four string concertos. Two penned almost three decades apart and two others that he wrote specifically for each of the soloists on the album; violinist Patricia Kopatchinskaja and cellist Anja Lechner. The unifying theme of this splendid disc, and one that recurs throughout most of Mansurian's opus, is a sublime, almost effortless, narrative sense endowed with a timeless mysticism.
The music is laced with both sorrow and solace, often simultaneously as is clearly heard on the penetrating and profound "Four Serious Songs For Violin And String Orchestra" from 2006. On the first movement of this, somber yet lyrical, musing on death's inevitability Kopatchinskaja's throbbing, visceral sound flavors the stream of consciousness pondering of the Amsterdam Sinfonietta with quiet grief.
Her passionate and achingly gorgeous solo on the second is mournful yet enveloped in a gossamer spirituality. Conductor Candida Thompson deftly leads the Sinfonietta in an incandescent, and discreetly celebratory performance, rich in Armenian folk motifs, that undulates around Kopatchinskaja's violin. The brief "Allegro Vivace" burst of darkly hued whimsy before the stately, funèbre final section. The latter opens with an angelic serenity that Kopatchinskaja's violin shatters midway with her vibrant, wailing strings. The piece is simultaneously a celebration of life and rage against its finality.
Fragments of Armenian popular melodies color the melancholic and emotive "Romance For Violin And String Orchestra" (2011), composed for and dedicated to Kopatchinskaja. The violinist's unadorned and tender bowing echoes against the ensemble's fluid refrains. Kopatchinskaja's anguished, yet restrained dramatic phrases precede the transcendental, placid closure.
The title composition written for Lechner in 2012 is perhaps the most recitative of the recording. Thompson and the Sinfonietta establish an expectant, vivid ambience replete with folkloric patterns. Lechner's poetic, agile cello takes center stage as it resonates with humor, sadness and intense fervor. Her pizzicato tones bounce off the orchestral din with subtle theatricality leading to her concluding, con arco solemn chant.
Lechner and Kopatchinskaja's virtuosity shines on the haunting, 1978 "Double Concerto For Violin, Violoncello And String Orchestra." Lechner's strings reverberate wistfully while Kopatchinskaja's mellifluous violin glides in hypnotic patterns. A tense dialogue evolves between the two soloists over a backdrop of Sinfonietta's fiery sonic flourishes that flirts with dissonance. The intense symphonic ambience melts into a pensive tranquility as the first part ends.
The second passage, in contrast is more intimate and reflective. Kopatchinskaja's forlorn yet elegant violin punctuates the somber atmosphere with warmth and compassion. Lechner's reserved, and exquisite cello is sedately nostalgic. The flowing musical chronicle ends on a deeply elegiac note.
Part due to the choice of material and part to the deep sympathy the musicians have for Mansurian's oeuvre, this record serves as an overview of the composer's uniformly superb career. It also demonstrates that the intervening thirty-four years between the oldest and newest works have not dampened his creative zeal but instead enhanced it with a contemplative maturity.
[teatrix.ru].t9614.torrent 
Торрент: Зарегистрирован [ 2015-10-23 17:11 ] · F06AB33E64809C3BFD4F1CC3EB2653D31911E864

Скачать .torrent

Скачать

14 KB

Статус: проверено
Скачан: 0 раз
Размер: 290 MB
terms.php



Быстрый ответ

Имя:

      
Для отправки сообщений необходимо включить JavaScript
Показать сообщения:    

Текущее время: 06-Дек 13:10

Часовой пояс: UTC + 3


Вы можете начинать темы
Вы можете отвечать на сообщения
Вы не можете редактировать свои сообщения
Вы не можете удалять свои сообщения
Вы не можете голосовать в опросах
Вы не можете прикреплять файлы к сообщениям
Вы можете скачивать файлы