(Classical) Joseph Haydn, Vaja Azarashvili / Важа Азарашвили - Cello Concertos {Maximilian Hornung, Kammerakademie Potsdam, Antonello Manacorda} - 2015, FLAC (tracks+.cue), lossless


Статистика раздачи [Обновить пиров]
Размер:  287 MB   |    Зарегистрирован:  1 год 1 месяц   |    Скачан:  0 раз

Полного источника не было: 13 дней

Личеров:  1  [  0 KB/s  ]   Подробная статистика пиров
 
   
 
 
 

[Цитировать]

Maximilian Hornung - Haydn, Azarashvili: Cello Concertos
Жанр: Classical
Страна-производитель диска: Германия
Год издания диска: 2015
Издатель (лейбл): Sony Classical
Номер по каталогу: 88843064532
Аудиокодек: FLAC
Тип рипа: tracks+.cue
Битрейт аудио: lossless
Продолжительность: 59:03
Источник (релизер): elemental5 (what)
Наличие сканов в содержимом раздачи: да
Треклист:
Joseph Haydn (1732-1809)
Concerto for Cello and Orchestra No.1 in C Major (Hob. VIIb-1)
01. 1. Moderato (8:22)
02. 2. Adagio (7:34)
03. 3. Finale. Allegro molto (6:14)
Vaja Azarashvili (b. 1936)
Concerto for Cello and String Orchestra (1978)
04. 1. Andante (7:22)
05. 2. Allegro (6:58)
Joseph Haydn (1732-1809)
Concerto for Cello and Orchestra No.2 in D Major (Hob. VIIb-2)
06. 1. Allegro moderato (12:59)
07. 2. Adagio (5:08)
08. 3. Allegro (4:26)
Исполнители:
Maximilian Hornung - violoncello
Kammerakademie Potsdam
Antonello Manacorda - conductor
Recorded at Jesus-Christus-Kirche, Berlin on March 5-7, 2014.

Лог создания рипа

Exact Audio Copy V1.0 beta 4 from 7. December 2014
EAC extraction logfile from 28. February 2015, 13:03
Maximilian Hornung, Kammerakademie Potsdam, Antonello Manacorda / Cello Concertos
Used drive : HL-DT-STDVDRAM GE20NU10 Adapter: 1 ID: 1
Read mode : SecureUtilize accurate stream : YesDefeat audio cache : YesMake use of C2 pointers : No
Read offset correction : 667Overread into Lead-In and Lead-Out : NoFill up missing offset samples with silence : YesDelete leading and trailing silent blocks : NoNull samples used in CRC calculations : YesUsed interface : Native Win32 interface for Win NT & 2000Gap handling : Appended to previous track
Used output format : User Defined EncoderSelected bitrate : 1024 kBit/sQuality : HighAdd ID3 tag : NoCommand line compressor : C:\Program Files (x86)\Exact Audio Copy\Flac\flac.exeAdditional command line options : -8 -V -T "ARTIST=%artist%" -T "TITLE=%title%" -T "ALBUM=%albumtitle%" -T "DATE=%year%" -T "TRACKNUMBER=%tracknr%" -T "GENRE=%genre%" -T "PERFORMER=%albuminterpret%" -T "COMPOSER=%composer%" %haslyrics%--tag-from-file=LYRICS="%lyricsfile%"%haslyrics% -T "ALBUMARTIST=%albumartist%" -T "DISCNUMBER=%cdnumber%" -T "TOTALDISCS=%totalcds%" -T "TOTALTRACKS=%numtracks%" -T "COMMENT=%comment%" %source% -o %dest%
TOC of the extracted CD
Track | Start | Length | Start sector | End sector --------------------------------------------------------- 1 | 0:00.00 | 8:21.53 | 0 | 37627 2 | 8:21.53 | 7:34.00 | 37628 | 71677 3 | 15:55.53 | 6:14.35 | 71678 | 99762 4 | 22:10.13 | 7:22.13 | 99763 | 132925 5 | 29:32.26 | 6:57.54 | 132926 | 164254 6 | 36:30.05 | 12:59.05 | 164255 | 222684 7 | 49:29.10 | 5:08.16 | 222685 | 245800 8 | 54:37.26 | 4:25.72 | 245801 | 265747
Track 1
Filename C:\New\01. Concerto for Cello and Orchestra No. 1 in C Major (Hob. VIIb-1) - 1. Moderato.wav
Pre-gap length 0:00:02.00
Peak level 77.2 % Extraction speed 5.0 X Track quality 100.0 % Test CRC E75E21BC Copy CRC E75E21BC Track not present in AccurateRip database Copy OK
Track 2
Filename C:\New\02. Concerto for Cello and Orchestra No. 1 in C Major (Hob. VIIb-1) - 2. Adagio.wav
Peak level 48.0 % Extraction speed 5.9 X Track quality 100.0 % Test CRC D1DF5087 Copy CRC D1DF5087 Track not present in AccurateRip database Copy OK
Track 3
Filename C:\New\03. Concerto for Cello and Orchestra No. 1 in C Major (Hob. VIIb-1) - 3. Finale. Allegro molto.wav
Peak level 95.8 % Extraction speed 5.5 X Track quality 99.9 % Test CRC 3350FF42 Copy CRC 3350FF42 Track not present in AccurateRip database Copy OK
Track 4
Filename C:\New\04. Concerto for Cello and String Orchestra (1978) - 1. Andante.wav
Pre-gap length 0:00:09.93
Peak level 76.6 % Extraction speed 6.9 X Track quality 100.0 % Test CRC A54BFF6D Copy CRC A54BFF6D Track not present in AccurateRip database Copy OK
Track 5
Filename C:\New\05. Concerto for Cello and String Orchestra (1978) - 2. Allegro.wav
Peak level 86.6 % Extraction speed 7.5 X Track quality 100.0 % Test CRC 07C96BA3 Copy CRC 07C96BA3 Track not present in AccurateRip database Copy OK
Track 6
Filename C:\New\06. Concerto for Cello and Orchestra No. 2 in D Major (Hob. VIIb-2) - 1. Allegro moderato.wav
Pre-gap length 0:00:09.18
Peak level 80.6 % Extraction speed 8.4 X Track quality 100.0 % Test CRC 82BF7FBF Copy CRC 82BF7FBF Track not present in AccurateRip database Copy OK
Track 7
Filename C:\New\07. Concerto for Cello and Orchestra No. 2 in D Major (Hob. VIIb-2) - 2. Adagio.wav
Peak level 69.2 % Extraction speed 8.4 X Track quality 100.0 % Test CRC 37A9B15C Copy CRC 37A9B15C Track not present in AccurateRip database Copy OK
Track 8
Filename C:\New\08. Concerto for Cello and Orchestra No. 2 in D Major (Hob. VIIb-2) - 3. Allegro.wav
Peak level 94.0 % Extraction speed 7.3 X Track quality 99.9 % Test CRC 790C73F9 Copy CRC 790C73F9 Track not present in AccurateRip database Copy OK
None of the tracks are present in the AccurateRip database
No errors occurred
End of status report
---- CUETools DB Plugin V2.1.4
[CTDB TOCID: Galb2HfX.ASAbNPrG4YhZgTURqw-] foundSubmit result: already submittedTrack | CTDB Status 1 | (1/1) Accurately ripped 2 | (1/1) Accurately ripped 3 | (1/1) Accurately ripped 4 | (1/1) Accurately ripped 5 | (1/1) Accurately ripped 6 | (1/1) Accurately ripped 7 | (1/1) Accurately ripped 8 | (1/1) Accurately ripped
==== Log checksum D6B33A884F85ABA9F12E67A8E1FD2A62EBA30D1787B30F7E57D941539C42AABF ====

Содержание индексной карты (.CUE)

REM GENRE ClassicalREM DATE 2015REM DISCID 710DD708REM COMMENT "ExactAudioCopy v1.0b4"PERFORMER "Maximilian Hornung"TITLE "Cello Concertos"FILE "01 - Concerto for Cello and Orchestra No.1 in C Major (Hob. VIIb-1) - 1. Moderato.wav" WAVE TRACK 01 AUDIO TITLE "Concerto for Cello and Orchestra No.1 in C Major (Hob. VIIb-1) - 1. Moderato" PERFORMER "Maximilian Hornung" ISRC DEE861400744 INDEX 01 00:00:00FILE "02 - Concerto for Cello and Orchestra No.1 in C Major (Hob. VIIb-1) - 2. Adagio.wav" WAVE TRACK 02 AUDIO TITLE "Concerto for Cello and Orchestra No.1 in C Major (Hob. VIIb-1) - 2. Adagio" PERFORMER "Maximilian Hornung" ISRC DEE861400745 INDEX 01 00:00:00FILE "03 - Concerto for Cello and Orchestra No.1 in C Major (Hob. VIIb-1) - 3. Finale. Allegro molto.wav" WAVE TRACK 03 AUDIO TITLE "Concerto for Cello and Orchestra No.1 in C Major (Hob. VIIb-1) - 3. Finale. Allegro molto" PERFORMER "Maximilian Hornung" ISRC DEE861400746 INDEX 01 00:00:00 TRACK 04 AUDIO TITLE "Concerto for Cello and String Orchestra (1978) - 1. Andante" PERFORMER "Maximilian Hornung" ISRC DEE861400748 INDEX 00 06:04:40FILE "04 - Concerto for Cello and String Orchestra (1978) - 1. Andante.wav" WAVE INDEX 01 00:00:00FILE "05. Concerto for Cello and String Orchestra (1978) - 2. Allegro.wav" WAVE TRACK 05 AUDIO TITLE "Concerto for Cello and String Orchestra (1978) - 2. Allegro" PERFORMER "Maximilian Hornung" ISRC DEE861400749 INDEX 01 00:00:00 TRACK 06 AUDIO TITLE "Concerto for Cello and Orchestra No.2 in D Major (Hob. VIIb-2) - 1. Allegro moderato" PERFORMER "Maximilian Hornung" ISRC DEE861400751 INDEX 00 06:48:40FILE "06 - Concerto for Cello and Orchestra No.2 in D Major (Hob. VIIb-2) - 1. Allegro moderato.wav" WAVE INDEX 01 00:00:00FILE "07 - Concerto for Cello and Orchestra No.2 in D Major (Hob. VIIb-2) - 2. Adagio.wav" WAVE TRACK 07 AUDIO TITLE "Concerto for Cello and Orchestra No.2 in D Major (Hob. VIIb-2) - 2. Adagio" PERFORMER "Maximilian Hornung" ISRC DEE861400752 INDEX 01 00:00:00FILE "08 - Concerto for Cello and Orchestra No.2 in D Major (Hob. VIIb-2) - 3. Allegro.wav" WAVE TRACK 08 AUDIO TITLE "Concerto for Cello and Orchestra No.2 in D Major (Hob. VIIb-2) - 3. Allegro" PERFORMER "Maximilian Hornung" ISRC DEE861400753 INDEX 01 00:00:00
[teatrix.ru].t9616.torrent 
Торрент: Зарегистрирован [ 2015-10-23 17:11 ] · BE3F946C9B9B092EDB2BE3ED5C81370AE9B5E373

Скачать .torrent

Скачать

14 KB

Статус: проверено
Скачан: 0 раз
Размер: 287 MB
terms.php



Быстрый ответ

Имя:

      
Для отправки сообщений необходимо включить JavaScript
Показать сообщения:    

Текущее время: 08-Дек 19:09

Часовой пояс: UTC + 3


Вы можете начинать темы
Вы можете отвечать на сообщения
Вы не можете редактировать свои сообщения
Вы не можете удалять свои сообщения
Вы не можете голосовать в опросах
Вы не можете прикреплять файлы к сообщениям
Вы можете скачивать файлы