(Classical) The Essential Wynton Marsalis - 2007, FLAC (image+.cue) lossless


Статистика раздачи [Обновить пиров]
Размер:  662 MB   |    Зарегистрирован:  1 год 1 месяц   |    Скачан:  0 раз

Полного источника не было: Никогда

Личеров:  1  [  0 KB/s  ]   Подробная статистика пиров
 
   
 
 
 

[Цитировать]

The Essential Wynton Marsalis
Жанр: Classical
Страна-производитель диска: Korea
Год издания диска: 2007
Издатель (лейбл): Sony Classical
Номер по каталогу: SB70164C
Дата записи: 1982-2002
Аудиокодек: FLAC
Тип рипа: image+.cue
Битрейт аудио: lossless
Продолжительность: 02:24:15
Источник: собственный рип
сайт-источник/ник/другое: Available
Наличие сканов в содержимом раздачи: нет

Треклист (Disc 1)

01. Jeremiah Clarke : The Prince of Denmark's March - 02:5102. Jean-Joseph Mouret : Rondeau (Theme from Masterpiece Theatre) from Suites de Symphonies, Premiere suite, Fanfares - 02:0403. Jeremiah Clarke - The King's March - 01:13
Wynton Marsalis, trumpetEnglish Chamber Orchestra / Anthony Newman
04. Henry Purcell - Entrada from The Indian Queen - 00:4205. Henry Purcell - Trumpet Air from The Indian Queen - 01:0006. Henry Purcell - Trumpet Tune form King Arthur - 00:47
Wynton Marsalis, trumpetEnglish Chamber Orchestra / Raymond Leppard
07. John Stanley - Trumpet Voluntary - 03:3608. Marc-Antoine Charpentier - Prelude from Te Deum, H.146 - 01:44
Wynton Marsalis, trumpetEnglish Chamber Orchestra / Anthony Newman
09. Johann Sebastian Bach - Allegro assai from Brandenburg Concerto No.2, BWV 1047 - 03:02
Wynton Marsalis, trumpet / William Bennett, flute / Neal Black, oboeCho-Liang Lin, violin / Charles Tunnell, cello / Ian Watson, harpsichord continuoEnglish Chamber Orchestra / Anthony Newman
10-12. Antonio Vivaldi - Concerto in C Major for Two Trumpets and Strings, RV 537 (arr. Raymond Leppard)I. Allegro - 03:07II. Largo - 00:58III. Allegro - 03:20
Wynton Marsalis, trumpet 1 & 2 (synchronization)English Chamber Orchestra / Raymond Leppard
13-14. Leopold Mozart - Concerto for Trumpet and Orchestra in D MajorI. Adagio - 05:34II. Allegro moderato - 03:25
15-17. Joseph Haydn - Concerto for Trumpet and Orchestra in E-flat Major, Hob.VIIe: 1 (cadenza: Wynton Marsalis)I. Allegro - 06:47II. Andante - 03:11III. Finale. Allegro - 04:33
18-20. Johann Nepomuk Hummel - Concerto in E-flat Major for Trumpet and OrchestraI. Allegro con spirito - 09:41II. Andante - 04:12III. Rondo. Allegro molto - 03:29
Wynton Marsalis, trumpetEnglish Chamber Orchestra / Raymond Leppard
※ Bonus Tracks ※
21. Johann Sebastian Bach - Jauchzet Gott in allen Landen (from Cantata No.51, BWV 51) - 04:3422. George Frideric Handel - Let the Bright Serphim from Samson, HWV 57 - 05:33
Wynton Marsalis, trumpet / Kathleen Battle, sopranoOrchestra of St. Luke's / John Nelson

Треклист (Disc 2)

01. Maurice Ravel - Piece en forme de habanera - 03:14
02-04. Henri Tomasi - TriptyqueI. Scherzo - 00:40II. Largo - 01:11III. Saltarelle - 01:40
Wynton Marsalis, trumpet / Judith Lynn Stillman, piano
05. Andre Jolivet - Concertino for Trumpet, String Orchestra and Piano - 09:16
Wynton Marsalis, trumpet / Craig Sheppard, pianoPhilharmonic Orchestra / Esa-Pekka Salonen
06. Jean-Baptiste Arban - Variations on "the Carnival of Venice" (arr. Donald Hunsberger) - 07:3207. Hermann Bellstedt - Napoli - Variations on a Neapolitan song (arr. Donald Hunsberger) - 05:4308. 'Tis the Last Rose of Summer (arr. Donald Hunsberger) - 01:4609. Nicolai Rimsky-Korsakov - The Flight of the Bumblebee from Tsar Saltan (arr. Donald Hunsberger) - 01:03
Wynton Marsalis, trumpetEastman Wind Ensemble / Donald Hunsberger
10. Aaron Copland - Quiet City (arr. Donald Hunsberger) - 10:52
Wynton Marsalis, trumpet / Philip Koch, english hornEastman Wind Ensemble / Donald Hunsberger
11. Leonard Bernstein - Rondo for Lifey - 01:26
Wynton Marsalis, trumpet / Judith Lynn Stillman, piano
12. Alan Hovhaness - Parayer of St. Gregory for Trumpet & Organ, Op.62b - 04:07
Wynton Marsalis, trumpet / Anthony Newman, organ
※ Bonus Tracks ※
13. Tiger Rag - 05:20(Music: D. James Larocca, Edwin Edwards, Henry W. Ragas, Anthony Sbararo, Larry Sheilds / Lyrics: Harry Da Costa / arr. Mark O'Connor)
Wynton Marsalis, trumpet / with Mark O'Connor's Hot SwingTrio: Mark O'Connor, violin / Frank Vignola, guitar / Jon Burr, bass
14. Wynton Marsalis - Root Groove - 03:48
Wynton Marsalis, trumpetLincoln Center Jazz Orchestra / Wynton Marsalis
15. Ray Noble - Cherokee - 02:21
Wynton Marsalis, trumpet / Marcus Roberts, pianoRobert Leslie Hurst III, bass / Jeff "Tain" Watts, drums
16. Edward C. Redding - The End of a Love Affair - 03:12
Wynton Marsalis, trumpet / Marcus Roberts, pianoReginald Veal, bass / Herlin Riley, drums
17. Wynton Marsalis - Soon All Will Know - 03:35
Wynton Marsalis, trumpet / Marcus Roberts, PianoRobert Leslie Hurst III, bass / Jeff "Tain" Watts, drums

SCAN

Лог создания рипа (Disc 1)

Exact Audio Copy V1.0 beta 4 from 7. December 2014
EAC extraction logfile from 16. October 2015, 4:42
Wynton Marsalis / The Essential Wynton Marsalis
Used drive : HL-DT-STDVDRAM GH24NS90 Adapter: 1 ID: 0
Read mode : SecureUtilize accurate stream : YesDefeat audio cache : NoMake use of C2 pointers : Yes
Read offset correction : 6Overread into Lead-In and Lead-Out : NoFill up missing offset samples with silence : YesDelete leading and trailing silent blocks : NoNull samples used in CRC calculations : YesUsed interface : Native Win32 interface for Win NT & 2000
Used output format : User Defined EncoderSelected bitrate : 896 kBit/sQuality : HighAdd ID3 tag : NoCommand line compressor : C:\Program Files (x86)\Exact Audio Copy\Flac\flac.exeAdditional command line options : -8 -V -T "ARTIST=%artist%" -T "TITLE=%title%" -T "ALBUM=%albumtitle%" -T "DATE=%year%" -T "TRACKNUMBER=%tracknr%" -T "GENRE=%genre%" -T "PERFORMER=%albuminterpret%" -T "COMPOSER=%composer%" %haslyrics%–tag-from-file=LYRICS="%lyricsfile%"%haslyrics% -T "ALBUMARTIST=%albumartist%" -T "DISCNUMBER=%cdnumber%" -T "TOTALDISCS=%totalcds%" -T "TOTALTRACKS=%numtracks%" -T "COMMENT=%comment%" %source% -o %dest%
TOC of the extracted CD
Track | Start | Length | Start sector | End sector --------------------------------------------------------- 1 | 0:00.00 | 2:55.18 | 0 | 13142 2 | 2:55.18 | 2:03.55 | 13143 | 22422 3 | 4:58.73 | 1:13.39 | 22423 | 27936 4 | 6:12.37 | 0:43.50 | 27937 | 31211 5 | 6:56.12 | 1:02.63 | 31212 | 35924 6 | 7:59.00 | 0:50.06 | 35925 | 39680 7 | 8:49.06 | 3:34.67 | 39681 | 55797 8 | 12:23.73 | 1:45.67 | 55798 | 63739 9 | 14:09.65 | 3:00.68 | 63740 | 77307 10 | 17:10.58 | 3:07.15 | 77308 | 91347 11 | 20:17.73 | 0:58.17 | 91348 | 95714 12 | 21:16.15 | 3:22.51 | 95715 | 110915 13 | 24:38.66 | 5:32.43 | 110916 | 135858 14 | 30:11.34 | 3:27.15 | 135859 | 151398 15 | 33:38.49 | 6:50.18 | 151399 | 182166 16 | 40:28.67 | 3:10.53 | 182167 | 196469 17 | 43:39.45 | 4:34.32 | 196470 | 217051 18 | 48:14.02 | 9:54.07 | 217052 | 261608 19 | 58:08.09 | 5:15.20 | 261609 | 285253 20 | 63:23.29 | 3:38.04 | 285254 | 301607 21 | 67:01.33 | 4:37.34 | 301608 | 322416 22 | 71:38.67 | 5:31.07 | 322417 | 347248
Range status and errors
Selected range
Filename F:\The Essential Wynton Marsalis [Sony, 2007]\CD1\CDImage1.wav
Peak level 98.8 % Extraction speed 6.6 X Range quality 100.0 % Test CRC EC3B1B0E Copy CRC EC3B1B0E Copy OK
No errors occurred
AccurateRip summary
Track 1 accurately ripped (confidence 9) [7EFCBFB0] (AR v2)Track 2 accurately ripped (confidence 9) [A2BBC137] (AR v2)Track 3 accurately ripped (confidence 9) [00921A1E] (AR v2)Track 4 accurately ripped (confidence 9) [C9C891DE] (AR v2)Track 5 accurately ripped (confidence 9) [0FFC65BA] (AR v2)Track 6 accurately ripped (confidence 9) [9E171143] (AR v2)Track 7 accurately ripped (confidence 9) [43C3C96D] (AR v2)Track 8 accurately ripped (confidence 9) [26229C49] (AR v2)Track 9 accurately ripped (confidence 9) [EE2FA66D] (AR v2)Track 10 accurately ripped (confidence 9) [F2B627C0] (AR v2)Track 11 accurately ripped (confidence 9) [8703AF19] (AR v2)Track 12 accurately ripped (confidence 9) [E73F4C98] (AR v2)Track 13 accurately ripped (confidence 9) [32886319] (AR v2)Track 14 accurately ripped (confidence 9) [33F597D9] (AR v2)Track 15 accurately ripped (confidence 9) [EB4FCA11] (AR v2)Track 16 accurately ripped (confidence 9) [D552BB94] (AR v2)Track 17 accurately ripped (confidence 9) [1B15EC05] (AR v2)Track 18 accurately ripped (confidence 9) [FBA024C8] (AR v2)Track 19 accurately ripped (confidence 9) [0152AAB6] (AR v2)Track 20 accurately ripped (confidence 9) [3A6F6BF1] (AR v2)Track 21 accurately ripped (confidence 8) [18E4D959] (AR v2)Track 22 accurately ripped (confidence 8) [FA2A264D] (AR v2)
All tracks accurately ripped
End of status report
---- CUETools DB Plugin V2.1.4
[CTDB TOCID: zCkTKzNE.rQLeE5UmBjt.o6zEKA-] foundSubmit result: already submittedTrack | CTDB Status 1 | (5/5) Accurately ripped 2 | (5/5) Accurately ripped 3 | (5/5) Accurately ripped 4 | (5/5) Accurately ripped 5 | (5/5) Accurately ripped 6 | (5/5) Accurately ripped 7 | (5/5) Accurately ripped 8 | (5/5) Accurately ripped 9 | (5/5) Accurately ripped 10 | (5/5) Accurately ripped 11 | (5/5) Accurately ripped 12 | (5/5) Accurately ripped 13 | (5/5) Accurately ripped 14 | (5/5) Accurately ripped 15 | (5/5) Accurately ripped 16 | (5/5) Accurately ripped 17 | (5/5) Accurately ripped 18 | (5/5) Accurately ripped 19 | (5/5) Accurately ripped 20 | (5/5) Accurately ripped 21 | (5/5) Accurately ripped 22 | (5/5) Accurately ripped
==== Log checksum 633671EDFE69CEEC0685426C23024FD4648459613F2634A104F184B083FF85C3 ====

Лог создания рипа (Disc 2)

Exact Audio Copy V1.0 beta 4 from 7. December 2014
EAC extraction logfile from 16. October 2015, 3:52
Wynton Marsalis / The Essential Wynton Marsalis Disc 2
Used drive : HL-DT-STDVDRAM GH24NS90 Adapter: 1 ID: 0
Read mode : SecureUtilize accurate stream : YesDefeat audio cache : NoMake use of C2 pointers : Yes
Read offset correction : 6Overread into Lead-In and Lead-Out : NoFill up missing offset samples with silence : YesDelete leading and trailing silent blocks : NoNull samples used in CRC calculations : YesUsed interface : Native Win32 interface for Win NT & 2000
Used output format : User Defined EncoderSelected bitrate : 896 kBit/sQuality : HighAdd ID3 tag : NoCommand line compressor : C:\Program Files (x86)\Exact Audio Copy\Flac\flac.exeAdditional command line options : -8 -V -T "ARTIST=%artist%" -T "TITLE=%title%" -T "ALBUM=%albumtitle%" -T "DATE=%year%" -T "TRACKNUMBER=%tracknr%" -T "GENRE=%genre%" -T "PERFORMER=%albuminterpret%" -T "COMPOSER=%composer%" %haslyrics%–tag-from-file=LYRICS="%lyricsfile%"%haslyrics% -T "ALBUMARTIST=%albumartist%" -T "DISCNUMBER=%cdnumber%" -T "TOTALDISCS=%totalcds%" -T "TOTALTRACKS=%numtracks%" -T "COMMENT=%comment%" %source% -o %dest%
TOC of the extracted CD
Track | Start | Length | Start sector | End sector --------------------------------------------------------- 1 | 0:00.00 | 3:17.10 | 0 | 14784 2 | 3:17.10 | 0:40.00 | 14785 | 17784 3 | 3:57.10 | 1:10.49 | 17785 | 23083 4 | 5:07.59 | 1:42.51 | 23084 | 30784 5 | 6:50.35 | 9:19.70 | 30785 | 72779 6 | 16:10.30 | 7:34.12 | 72780 | 106841 7 | 23:44.42 | 5:44.00 | 106842 | 132641 8 | 29:28.42 | 1:46.31 | 132642 | 140622 9 | 31:14.73 | 1:04.03 | 140623 | 145425 10 | 32:19.01 | 10:51.43 | 145426 | 194293 11 | 43:10.44 | 1:23.69 | 194294 | 200587 12 | 44:34.38 | 4:05.25 | 200588 | 218987 13 | 48:39.63 | 5:18.61 | 218988 | 242898 14 | 53:58.49 | 3:49.73 | 242899 | 260146 15 | 57:48.47 | 2:26.01 | 260147 | 271097 16 | 60:14.48 | 3:14.22 | 271098 | 285669 17 | 63:28.70 | 3:36.13 | 285670 | 301882
Range status and errors
Selected range
Filename F:\The Essential Wynton Marsalis [Sony, 2007]\CDImage2.wav
Peak level 98.8 % Extraction speed 6.2 X Range quality 99.9 % Test CRC 3E269759 Copy CRC 3E269759 Copy OK
No errors occurred
AccurateRip summary
Track 1 accurately ripped (confidence 8) [96B22A2A] (AR v2)Track 2 accurately ripped (confidence 8) [03AC909F] (AR v2)Track 3 accurately ripped (confidence 8) [462219E6] (AR v2)Track 4 accurately ripped (confidence 8) [9A7FBFE3] (AR v2)Track 5 accurately ripped (confidence 8) [76D2DFF6] (AR v2)Track 6 accurately ripped (confidence 8) [01A9DEB7] (AR v2)Track 7 accurately ripped (confidence 8) [47CA7EF3] (AR v2)Track 8 accurately ripped (confidence 8) [42092EA2] (AR v2)Track 9 accurately ripped (confidence 8) [155720C6] (AR v2)Track 10 accurately ripped (confidence 8) [D42E7521] (AR v2)Track 11 accurately ripped (confidence 8) [3A2BFDBD] (AR v2)Track 12 accurately ripped (confidence 8) [477A37B2] (AR v2)Track 13 accurately ripped (confidence 8) [4B6B2039] (AR v2)Track 14 accurately ripped (confidence 8) [6BDE5D41] (AR v2)Track 15 accurately ripped (confidence 8) [9ACFA0CB] (AR v2)Track 16 accurately ripped (confidence 8) [BDD4D40E] (AR v2)Track 17 accurately ripped (confidence 8) [5C8DE6B2] (AR v2)
All tracks accurately ripped
End of status report
---- CUETools DB Plugin V2.1.4
[CTDB TOCID: xPALlwrFDE6TTwvM46StCx0lGnA-] foundSubmit result: xPALlwrFDE6TTwvM46StCx0lGnA- has been confirmedTrack | CTDB Status 1 | (2/2) Accurately ripped 2 | (2/2) Accurately ripped 3 | (2/2) Accurately ripped 4 | (2/2) Accurately ripped 5 | (2/2) Accurately ripped 6 | (2/2) Accurately ripped 7 | (2/2) Accurately ripped 8 | (2/2) Accurately ripped 9 | (2/2) Accurately ripped 10 | (2/2) Accurately ripped 11 | (2/2) Accurately ripped 12 | (2/2) Accurately ripped 13 | (2/2) Accurately ripped 14 | (2/2) Accurately ripped 15 | (2/2) Accurately ripped 16 | (2/2) Accurately ripped 17 | (2/2) Accurately ripped
==== Log checksum 8B5BB7757CD921E0172C4CFE0F4600FB797AF4072B20CA9FCE04A945A9579BED ====
Доп. информация: 즐겁게 감상하세요 ♥
[teatrix.ru].t9617.torrent 
Торрент: Зарегистрирован [ 2015-10-23 17:11 ] · E898E1D69361451C4148B1F412C68755DA2D2A32

Скачать .torrent

Скачать

14 KB

Статус: проверено
Скачан: 0 раз
Размер: 662 MB
terms.php



Быстрый ответ

Имя:

      
Для отправки сообщений необходимо включить JavaScript
Показать сообщения:    

Текущее время: 09-Дек 20:26

Часовой пояс: UTC + 3


Вы можете начинать темы
Вы можете отвечать на сообщения
Вы не можете редактировать свои сообщения
Вы не можете удалять свои сообщения
Вы не можете голосовать в опросах
Вы не можете прикреплять файлы к сообщениям
Вы можете скачивать файлы